Ссылка на приватное зеркало всего за 1$. Внимание количество ограничено!!!

iTunes

iTunes

iTunes

1

iTunes

iTunes

iTunes

iTunes

iTunes

30
pack

$ от Little Big

ВАЖНО

!!Акция!!

Alien_RageХит недели

RePack

Resident Evil 21

ИГРА 18+

pack

RePack

jed

!!Акция!!

Alien_Rage

RePack

fifa19

RePack

Assassins Creed: Odyssey

RePack

NEED FOR SPEED™ PAYBACK

4 сезон

9 сезон

Бесстыжие 9 сезон

Все сериалы

все сериалы на PB.wtf

RePack

FAR CRY 5
  

Кукла / The Boy (Уильям Брент Белл) [2016, ужасы, триллер, детектив, WEB-DL 1080p, Дубляж] iTunes pb.wtf

Кукла через торрент pb.wtf

Размер: 3.17 GB | Добавлен: 4 года 2 мес. назад | Торрент скачан:840 раз
Скачать  

25-04-2016 19:42 Кукла Скачать торрент  


Кукла / The Boy
««Каждый ребенок должен быть любим»»

ИНФОРМАЦИЯ:
Год выпуска:2016
Страна: США, Китай, Канада
Жанр: ужасы, триллер, детектив
Продолжительность: 01:33:19
Перевод: Дубляж - [Лицензия / iTunes]
Режиссер: Уильям Брент Белл

В Ролях:


Лорен Кохэн (Greta Evans), Руперт Эванс (Malcolm), Джеймс Расселл (James), Джим Нортон (Mr. Heelshire), Диана Хардкэсл (Mrs. Heelshire), Бен Робсон (Cole), Джетт Клине (Brahms (Child)), Лили Патер (Emily Cribbs), Мэттью Уокер (Taxi Driver), Стефани Николь Лемелин (Sandy)

Описание:
Благополучная английская семья нанимает для своего сына американскую няню. Приехав на новое место работы, няня обнаруживает, что ее подопечный - вовсе не настоящий мальчик, а кукла в человеческий рост, с которой обращаются, как с живым человеком. Но тревожные события, происходящие после того, как няня нарушает установленные строгие правила, заставляют её поверить в то, что кукла действительно может быть живой...

  • Мировая премьера:21 января 2016

    ТЕХ.ДАННЫЕ:
    Качество: WEB-DL 1080p
    Формат: MKV
    Видео: AVC, 1920x804 (2.40:1), 4388 kbps, 25 fps, 0,114 bpp
    Аудио: русский / AC3 / 5.1 / 48 kHz / 384 kbps / 16 bit ||
    Навигация по главам: есть


    General
    Unique ID : 184368018340072630455577163040604285532 (0x8AB3FD1D77011E7C8C52BD0C852FEA5C)
    Complete name : D:\Торент\The.Boy.2016.1080p.WEB-DL.Rus.HDCLUB.mkv
    Format : Matroska
    Format version : Version 2
    File size : 3.17 GiB
    Duration : 1h 33mn
    Overall bit rate : 4 869 Kbps
    Movie name : The Boy (2016) - Release for HDCLUB
    Encoded date : UTC 2016-04-25 19:04:41
    Writing application : mkvmerge v3.4.0 ('Rapunzel') built on May 15 2010 09:38:20
    Writing library : libebml v0.8.0 + libmatroska v0.9.0

    Video
    ID : 1
    Format : AVC
    Format/Info : Advanced Video Codec
    Format profile : High@L4.0
    Format settings, CABAC : Yes
    Format settings, ReFrames : 5 frames
    Codec ID : V_MPEG4/ISO/AVC
    Duration : 1h 33mn
    Bit rate : 4 388 Kbps
    Width : 1 920 pixels
    Height : 804 pixels
    Display aspect ratio : 2.40:1
    Frame rate : 25.000 fps
    Color space : YUV
    Chroma subsampling : 4:2:0
    Bit depth : 8 bits
    Scan type : Progressive
    Bits/(Pixel*Frame) : 0.114
    Stream size : 2.86 GiB (90%)
    Title : The Boy (2016) - Release for HDCLUB
    Language : English
    Default : Yes
    Forced : No
    Color primaries : BT.709-5, BT.1361, IEC 61966-2-4, SMPTE RP177
    Transfer characteristics : BT.709-5, BT.1361
    Matrix coefficients : BT.709-5, BT.1361, IEC 61966-2-4 709, SMPTE RP177

    Audio
    ID : 2
    Format : AC-3
    Format/Info : Audio Coding 3
    Mode extension : CM (complete main)
    Codec ID : A_AC3
    Duration : 1h 33mn
    Bit rate mode : Constant
    Bit rate : 384 Kbps
    Channel(s) : 6 channels
    Channel positions : Front: L C R, Side: L R, LFE
    Sampling rate : 48.0 KHz
    Bit depth : 16 bits
    Compression mode : Lossy
    Stream size : 256 MiB (8%)
    Title : AC3 5.1 @ 384 kbps - DUB, iTunes
    Language : Russian
    Default : Yes
    Forced : No

    Menu
    00:00:00.000 : en:1
    00:06:10.840 : en:2
    00:11:46.360 : en:3
    00:17:04.080 : en:4
    00:22:31.680 : en:5
    00:29:26.520 : en:6
    00:36:25.000 : en:7
    00:42:50.480 : en:8
    00:51:42.680 : en:9
    00:58:30.600 : en:10
    01:05:11.040 : en:11
    01:12:07.000 : en:12
    01:17:48.360 : en:13
    01:22:38.680 : en:14
    01:27:53.920 : en:15
    Скриншоты:

    © Оформление by .::Ворон::.
    pb.wtf



  • Скачать Кукла через торрент http://pic.kartinco.top/images/6/ordi9.jpg Скачать фильм Кукла через торрент бесплантно в хорошем качестве Описание: Благополучная английская семья нанимает для своего сына американскую няню. Приехав на новое место работы, няня обнаруживает, что ... 8.9 10 25
    Info! Золотая раздача, скачанное не засчитывается.
    Торрент: Зарегистрирован [2016-04-25 19:42] · скачан: 840 раз
    Статус: √ проверено
    Размер: 3.17 GB
    Как cкачать? Как скачать Кукла через торрент | qTorrent

    % Раздел Тема Автор DL S | L
    Ultra HD (UHD: 2K, 4K, 8K) — видео сверхвысокой чёткости [ 37.07 GB ] Кукла 2: Брамс / Brahms: The Boy II [2020 UHD BDRemux 2160p] bober100 Скачать
    2 | 0
    Фильмы (WEB-DL 720p, 1080p) [ 3.53 GB ] Кукла 2: Брамс / Brahms: The Boy II [2020 WEB-DL 1080p] bober100 Скачать
    2 | 0
    Фильмы 2019-2020 [DVDrip, WEB-DLRip, HDrip] (DUB, MVO) [ 1.42 GB ] Кукла 2: Брамс / Brahms: The Boy II [2020 BDRip] - Twi7ter Скачать
    21 | 1
    Фильмы (Blu-ray, BD-Remux, HDDVD) [ 23.46 GB ] Кукла 2: Брамс / Brahms: The Boy II [2020 BD Remux 1080p] bober100 Скачать
    1 | 0
    Фильмы [HD 720p, 1080p] (Хороший звук DUB, MVO) [ 5.9 GB ] Кукла 2: Брамс / Brahms: The Boy II [2020 BDRip 1080p] bober100 Скачать
    1 | 0
    Фильмы 2019-2020 [DVDrip, WEB-DLRip, HDrip] (DUB, MVO) [ 809 MB ] Кукла 2: Брамс / Brahms: The Boy II [2020 HDRip] bober100 Скачать
    3 | 0
    Фильмы [HD 720p, 1080p] (Хороший звук DUB, MVO) [ 2.72 GB ] Кукла 2: Брамс / Brahms: The Boy II [2020 BDRip 720p] bober100 Скачать
    2 | 0

    28-11-2019 20:33  

    Отключить всю рекламу на сайте

    26-04-2016 13:38 Кукла Скачать торрент  

    Спасибо за фильм! Обожаю актрису Лорен Кохэн. Отличная девка и отличная актриса pb.wtf



    26-04-2016 14:16 Кукла Скачать торрент  

    Мне фильм в целом понравился, но вот
    концовка просто убила...так тупо взять и оборвать все ради продолжения..и вообще нет логики, они убежали, а этот чел остался сам дальше в доме и готовит игрушку для чего??? муть кароче. По логике они должны вызвать ментов и т.д.
    pb.wtf



    27-04-2016 17:55 Кукла Скачать торрент  

    Во общем,посмотрел данный фильм,ожидал большего, как всегда все самое интересное выдрали для трейлера, думал про призраков, а оказалось скучный, местами выносящими эпизодами мозг, типа "да как она вообще не обосралась когда думала, что кукла живая?!)На один раз ради коллекции пойдет.pb.wtf



    03-05-2016 13:43 Кукла Скачать торрент  

    Фильм местами предсказуем, но сюжет интересенpb.wtf



      Дорогой пользователь! Огромная просьба, поблагодарите релизера, оцените раздачу и оставьте свои комментарий, если Вы скачали Кукла через торрент бесплатно! Внесите свою лепту в развитие PiratBit!
      Комментировать посты могут только пользователи прошедшие не сложную регистрацию
      Показать сообщения:    

      Кукла через торрент
      Скачать бесплатно Кукла
      Кукла скачать торрент
      Кукла смотреть онлайн
      Cкачать фильм Кукла бесплатно
      Кукла скачать торрент в хорошем качестве
      Кукла смотреть онлайн бесплатно в хорошем качестве


      Вы не можете начинать темы
      Вы не можете отвечать на сообщения
      Вы не можете редактировать свои сообщения
      Вы не можете удалять свои сообщения
      Вы не можете голосовать в опросах
      Вы не можете прикреплять файлы к сообщениям
      Вы можете скачивать файлы