Ссылка на приватное зеркало всего за 1$. Внимание количество ограничено!!!

iTunes

iTunes

iTunes

1

iTunes

iTunes

iTunes

iTunes

iTunes

30
pack

$ от Little Big

ВАЖНО

!!Акция!!

Alien_RageХит недели

RePack

Resident Evil 21

ИГРА 18+

pack

RePack

jed

!!Акция!!

Alien_Rage

RePack

fifa19

RePack

Assassins Creed: Odyssey

RePack

NEED FOR SPEED™ PAYBACK

4 сезон

9 сезон

Бесстыжие 9 сезон

Все сериалы

все сериалы на PB.wtf

RePack

FAR CRY 5
  

Неровная земля / The Driftless Area (Zachary Sluser ) [2015, драма, мелодрама, комедия] WEB-DL 1080p / Профессиональный многоголосый [Лицензия / iTunes] pb.wtf

Неровная земля через торрент pb.wtf

Размер: 3.23 GB | Добавлен: 4 года 2 мес. назад | Торрент скачан:20 раз
Скачать  

26-04-2016 07:43 Неровная земля Скачать торрент  

Неровная земля / The Driftless Area

Год выпуска: 2015
Страна: Канада, США
Жанр: драма, мелодрама, комедия, детектив
Продолжительность: 01:35:36
Примечание: релиз без рекламы
Перевод: Профессиональный многоголосый [Лицензия / iTunes]
Режиссер: Zachary Sluser
В ролях: Антон Ельчин (Pierre), Зои Дешанель (Stella), Джон Хоукс (Shane), Алиа Шокат (Carrie), Фрэнк Ланджелла (Tim Geer), Киран Хайндс (Ned), Обри Плаза (Jean), Бенжамин Роджерс (Keith), Примо Аллон (Lyle), Гари Хетерингтон (Reverend John Morris), Люсия Франджионе (Luanne), Элика Портной (The Tragic Woman)
Описание:
Тихоня-бармен Пьер возвращается в родной город после смерти родителей. Он влюбляется в загадочную девушку по имени Стелла. И это прекрасное событие вынуждает его столкнуться нос к носу с преступным элементом в лице Шэйна.
Рейтинг:

MPAA: R - Лицам до 17 лет обязательно присутствие взрослого
Качество: WEB-DL 1080p
Формат: MKV
Видео: AVC, 1916x794 (2.40:1), 4458 kbps, 23,976 fps, 0,120 bpp
Аудио: русский / AC3 / 5.1 / 48 kHz / 384 kbps / 16 bit ||
Навигация по главам: есть






Код:

General
Общее
Уникальный идентификатор                 : 204592594484633959935069199646884139410 (0x99EB19B4962CB5DCB273973DE3B89192)
Полное имя                               : D:\С инета\The.Driftless.Area.2015.P.WEB-DL.1080p.mkv
Формат                                   : Matroska
Версия формата                           : Version 4 / Version 2
Размер файла                             : 3,23 Гбайт
Продолжительность                        : 1 ч. 35 м.
Общий поток                              : 4844 Кбит/сек
Дата кодирования                         : UTC 2016-04-25 19:23:34
Программа кодирования                    : mkvmerge v8.3.0 ('Over the Horizon') 64bit
Библиотека кодирования                   : libebml v1.3.1 + libmatroska v1.4.2

Видео
Идентификатор                            : 1
Формат                                   : AVC
Формат/Информация                        : Advanced Video Codec
Профиль формата                          : High@L4
Параметр CABAC формата                   : Да
Параметр ReFrames формата                : 5 кадров
Идентификатор кодека                     : V_MPEG4/ISO/AVC
Продолжительность                        : 1 ч. 35 м.
Битрейт                                  : 4458 Кбит/сек
Ширина                                   : 1916 пикселей
Высота                                   : 794 пикселя
Соотношение сторон                       : 2,40:1
Режим частоты кадров                     : Постоянный
Частота кадров                           : 23,976 (23976/1000) кадра/сек
Цветовое пространство                    : YUV
Субдискретизация насыщенности            : 4:2:0
Битовая глубина                          : 8 бит
Тип развёртки                            : Прогрессивная
Бит/(Пиксели*Кадры)                      : 0.122
Размер потока                            : 2,98 Гбайт (92%)
Язык                                     : English
Default                                  : Да
Forced                                   : Нет
Цветовой диапазон                        : Limited
Основные цвета                           : BT.709
Характеристики трансфера                 : BT.709
Коэффициенты матрицы                     : BT.709

Аудио
Идентификатор                            : 2
Формат                                   : AC-3
Формат/Информация                        : Audio Coding 3
Расширение режима                        : CM (complete main)
Параметр Endianness формата              : Big
Идентификатор кодека                     : A_AC3
Продолжительность                        : 1 ч. 35 м.
Вид битрейта                             : Постоянный
Битрейт                                  : 384 Кбит/сек
Каналы                                   : 6 каналов
Расположение каналов                     : Front: L C R, Side: L R, LFE
Частота                                  : 48,0 КГц
Частота кадров                           : 31,250 кадров/сек (1536 spf)
Метод сжатия                             : С потерями
Размер потока                            : 263 Мбайт (8%)
Язык                                     : Russian
Default                                  : Да
Forced                                   : Нет

Меню
00:00:00.000                             : en:1
00:07:51.554                             : en:2
00:12:15.234                             : en:3
00:19:32.170                             : en:4
00:25:34.991                             : en:5
00:28:38.174                             : en:6
00:32:44.670                             : en:7
00:40:07.404                             : en:8
00:45:56.252                             : en:9
00:52:03.827                             : en:10
00:56:25.296                             : en:11
01:02:45.134                             : en:12
01:08:12.753                             : en:13
01:12:50.906                             : en:14
01:19:22.672                             : en:15
01:27:07.136                             : en:16

pb.wtf



Скачать Неровная земля через торрент http://i80.fastpic.ru/big/2016/0426/49/e9892b2ecb397af93ea6a32439387849.jpg Скачать фильм Неровная земля через торрент бесплантно в хорошем качестве Описание: Тихоня-бармен Пьер возвращается в родной город после смерти родителей. Он влюбляется в загадочную девушку по имени Стелла. И это ... 8.2 10 5
Торрент: Зарегистрирован [2016-04-26 07:43] · скачан: 20 раз
Статус: √ проверено
Размер: 3.23 GB
Как cкачать? Как скачать Неровная земля через торрент | qTorrent

% Раздел Тема Автор DL S | L
Фильмы 2015 [DVDrip, WEB-DLRip, HDrip] [ 1.48 GB ] Неровная земля / The Driftless Area [2015 ] WEB-DLRip / многоголосый DINO-UFO Скачать
1 | 0

28-11-2019 20:33  

Отключить всю рекламу на сайте

    Дорогой пользователь! Огромная просьба, поблагодарите релизера, оцените раздачу и оставьте свои комментарий, если Вы скачали Неровная земля через торрент бесплатно! Внесите свою лепту в развитие PiratBit!
    Комментировать посты могут только пользователи прошедшие не сложную регистрацию
    Показать сообщения:    

    Неровная земля через торрент
    Скачать бесплатно Неровная земля
    Неровная земля скачать торрент
    Неровная земля смотреть онлайн
    Cкачать фильм Неровная земля бесплатно
    Неровная земля скачать торрент в хорошем качестве
    Неровная земля смотреть онлайн бесплатно в хорошем качестве


    Вы не можете начинать темы
    Вы не можете отвечать на сообщения
    Вы не можете редактировать свои сообщения
    Вы не можете удалять свои сообщения
    Вы не можете голосовать в опросах
    Вы не можете прикреплять файлы к сообщениям
    Вы можете скачивать файлы