Ссылка на приватное зеркало всего за 1$. Внимание количество ограничено!!!

OK

1+1

iTunes

мы

OK

1

WEB-DLRip

Джокер

Пифагор

Ведьмак / The Witcher сериал

Лицензия

ПШазам

ОК

Оно 2

iTunes

30
pack

Вам бонус

ВАЖНО

!!Акция!!

Alien_RageХит недели

RePack

Resident Evil 21

ИГРА 18+

pack

RePack

jed

RePack

fifa19

RePack

Assassins Creed: Odyssey

RePack

NEED FOR SPEED™ PAYBACK

4 сезон

9 сезон

Бесстыжие 9 сезон

Все сериалы

все сериалы на PB.wtf

RePack

FAR CRY 5
  

Вафельная улица / Waffle Street (Eshom Nelms , Йен Нелмс ) [2015, драма, комедия] WEB-DLRip / Любительский (двухголосый) pb.wtf

Вафельная улица через торрент pb.wtf

Качают: 1 [ 0 KB/s ]
Размер: 1.37 GB | Добавлен: 3 года 8 мес. назад | Торрент скачан:115 раз
Скачать  

26-04-2016 08:18 Вафельная улица Скачать торрент  

Вафельная улица / Waffle Street

Год выпуска: 2015
Страна: США
Жанр: драма, комедия
Продолжительность: 01:30:21
Примечание: Присутствует реклама
Перевод: Любительский (двухголосый)
Режиссер: Eshom Nelms , Йен Нелмс
В ролях: Джеймс Лэфферти (Jimmy Adams), Джули Гонсало (Becky Adams), Дэнни Гловер (Edward Collins), Дейл Дикки (Crazy Kathy), Маршалл Белл (Miles Drake III), Адам Джонсон (Matthew Linslow), Мэйсон Д. Дэвис (Dax Moon), Эрни Лайвли (Wright Adams), Кэти Кокрелл (Capri Kingsley), Мелани Стоун (Peyton Allison), Мэрили Крокетт (Hot Nightclub Girl), Майкл Флинн (Clifton Roberts)
Описание:
Это реальная история про некогда успешного работника инвестиционного фонда с капиталом 30 миллиардов долларов. Он потерял эту работу и временно устроился официантом в круглосуточную закусочную, которая славится своими фирменными вафлями. Там он и познакомился с бывшим заключенным Эдвардом, который теперь готовит в этом заведении блюда на гриле...
Рейтинг:

Качество: WEB-DLRip
Формат: AVI
Видео: DivX 5, 640x352 (16:9), 1835 kbps, 23,976 fps, 0,340 bpp
Аудио: MP3 / 2.0 / 48 kHz / 320 kbps /






Код:

General
Общее
Полное имя                               : D:\С инета\Waffle Street.2015.WEB-DLRip.avi
Формат                                   : AVI
Формат/Информация                        : Audio Video Interleave
Размер файла                             : 1,37 Гбайт
Продолжительность                        : 1 ч. 30 м.
Общий поток                              : 2164 Кбит/сек
Программа кодирования                    : VirtualDubMod 1.5.10.2 (build 2540/release)
Библиотека кодирования                   : VirtualDubMod build 2540/release

Видео
Идентификатор                            : 0
Формат                                   : MPEG-4 Visual
Параметр BVOP формата                    : Нет
Параметр QPel формата                    : Нет
Параметр GMC формата                     : Без точки перехода
Параметр матрицы формата                 : Default (H.263)
Идентификатор кодека                     : DX50
Идентификатор кодека/Подсказка           : DivX 5
Продолжительность                        : 1 ч. 30 м.
Битрейт                                  : 1835 Кбит/сек
Ширина                                   : 640 пикселей
Высота                                   : 352 пикселя
Соотношение сторон                       : 16:9
Частота кадров                           : 23,976 кадра/сек
Цветовое пространство                    : YUV
Субдискретизация насыщенности            : 4:2:0
Битовая глубина                          : 8 бит
Тип развёртки                            : Прогрессивная
Метод сжатия                             : С потерями
Бит/(Пиксели*Кадры)                      : 0.340
Размер потока                            : 1,16 Гбайт (85%)
Библиотека кодирования                   : DivX 3013

Аудио
Идентификатор                            : 1
Формат                                   : MPEG Audio
Версия формата                           : Version 1
Профиль формата                          : Layer 3
Идентификатор кодека                     : 55
Идентификатор кодека/Подсказка           : MP3
Продолжительность                        : 1 ч. 30 м.
Вид битрейта                             : Постоянный
Битрейт                                  : 320 Кбит/сек
Каналы                                   : 2 канала
Частота                                  : 48,0 КГц
Метод сжатия                             : С потерями
Размер потока                            : 207 Мбайт (15%)
Выравнивание                             : Разделение по промежуткам
Продолжительность промежутка             : 42  мс. (1,00 видеокадр)
Время предзагрузки промежутка            : 500  мс.

pb.wtf



Скачать Вафельная улица через торрент http://i78.fastpic.ru/big/2016/0426/07/1791c920efdd27904f58278f4a726c07.jpg Скачать фильм Вафельная улица через торрент бесплантно в хорошем качестве Описание: Это реальная история про некогда успешного работника инвестиционного фонда с капиталом 30 миллиардов долларов. Он потерял эту ... 8.5 10 6
Торрент: Зарегистрирован [2016-04-26 08:18] · скачан: 115 раз
Статус: T временная
Размер: 1.37 GB
Как cкачать? Как скачать Вафельная улица через торрент | qTorrent

28-11-2019 20:33  

Отключить всю рекламу на сайте

    Дорогой пользователь! Огромная просьба, поблагодарите релизера, оцените раздачу и оставьте свои комментарий, если Вы скачали Вафельная улица через торрент бесплатно! Внесите свою лепту в развитие PiratBit!
    Комментировать посты могут только пользователи прошедшие не сложную регистрацию
    Показать сообщения:    

    Вафельная улица через торрент
    Скачать бесплатно Вафельная улица
    Вафельная улица скачать торрент
    Вафельная улица смотреть онлайн
    Cкачать фильм Вафельная улица бесплатно
    Вафельная улица скачать торрент в хорошем качестве
    Вафельная улица смотреть онлайн бесплатно в хорошем качестве


    Вы не можете начинать темы
    Вы не можете отвечать на сообщения
    Вы не можете редактировать свои сообщения
    Вы не можете удалять свои сообщения
    Вы не можете голосовать в опросах
    Вы не можете прикреплять файлы к сообщениям
    Вы можете скачивать файлы