Ссылка на приватное зеркало нашего сайта всего за 1$. Внимание количество ограничено!!!

2 сезон

iTunes

1 сезон

1

2 сезон

2 сезон

iTunes

1 сезон

RePack

30

Ultimate

ВАЖНО

ИГРА 18+

pack

RePack

MK11
pack

Забери бонус

RePack

jed

!!Акция!!

Alien_Rage

RePack

fifa19

RePack

Assassins Creed: Odyssey

RePack

NEED FOR SPEED™ PAYBACK

4 сезон

9 сезон

Бесстыжие 9 сезон

Все сериалы

все сериалы на PB.wtf

RePack

FAR CRY 5
  

Диксиленд / Dixieland (Хэнк Бедфорд ) [2015, драма, криминал] WEB-DLRip / Любительский (двухголосый) pb.wtf

Диксиленд через торрент pb.wtf

Размер: 1.37 GB | Добавлен: 4 года 7 мес. назад | Торрент скачан:82 раза
Скачать  

26-04-2016 08:43 Диксиленд Скачать торрент  

Диксиленд / Dixieland

Год выпуска: 2015
Страна: США
Жанр: драма, криминал
Продолжительность: 01:37:33
Примечание: Присутствуют вставки голосовой и текстовой рекламы!
Перевод: Любительский (двухголосый)
Режиссер: Хэнк Бедфорд
В ролях: Крис Зилка (Kermit), Райли Кио (Rachel), Фэйт Хилл (Arletta), АрДжей Митти (CJ), Брэд Картер (Larry Pretty), Стив Эрл (Uncle Randy), Спенсер Лофранко (Billy), Мик Фоли (играет самого себя), Педро Анайа Перез (Flavor), Davis Cannada (Clay), John Clofine (Young Kermit), Rachel Drayke (Waitress)
Описание:
Фильм рассказывает о молодом парне, который только что вышел из тюрьмы. Он влюбляется в привлекательную соседку, которая работает стриптизершей в местном баре. Вместе они пытаются вырваться из своего преступного окружения, но это оказывается не так просто…
Рейтинг:

MPAA: R - Лицам до 17 лет обязательно присутствие взрослого
Качество: WEB-DLRip
Формат: AVI
Видео: DivX 5, 720x384 (1.875), 1803 kbps, 24 fps, 0,272 bpp
Аудио: MP3 / 2.0 / 48 kHz / 192 kbps /






Код:

General

Общее
Полное имя                               : D:\С инета\Dixieland.2015.WEB-DLRip.avi
Формат                                   : AVI
Формат/Информация                        : Audio Video Interleave
Размер файла                             : 1,37 Гбайт
Продолжительность                        : 1 ч. 37 м.
Общий поток                              : 2004 Кбит/сек
Программа кодирования                    : VirtualDubMod 1.5.10.2 (build 2540/release)
Библиотека кодирования                   : VirtualDubMod build 2540/release

Видео
Идентификатор                            : 0
Формат                                   : MPEG-4 Visual
Параметр BVOP формата                    : 1
Параметр QPel формата                    : Нет
Параметр GMC формата                     : Без точки перехода
Параметр матрицы формата                 : Default (H.263)
Режим смешивания                         : Сжатый битовый поток
Идентификатор кодека                     : DX50
Идентификатор кодека/Подсказка           : DivX 5
Продолжительность                        : 1 ч. 37 м.
Битрейт                                  : 1803 Кбит/сек
Ширина                                   : 720 пикселей
Высота                                   : 384 пикселя
Соотношение сторон                       : 1,85:1
Частота кадров                           : 24,000 кадра/сек
Цветовое пространство                    : YUV
Субдискретизация насыщенности            : 4:2:0
Битовая глубина                          : 8 бит
Тип развёртки                            : Прогрессивная
Метод сжатия                             : С потерями
Бит/(Пиксели*Кадры)                      : 0.272
Размер потока                            : 1,23 Гбайт (90%)
Библиотека кодирования                   : DivX 3013

Аудио
Идентификатор                            : 1
Формат                                   : MPEG Audio
Версия формата                           : Version 1
Профиль формата                          : Layer 3
Идентификатор кодека                     : 55
Идентификатор кодека/Подсказка           : MP3
Продолжительность                        : 1 ч. 37 м.
Вид битрейта                             : Постоянный
Битрейт                                  : 192 Кбит/сек
Каналы                                   : 2 канала
Частота                                  : 48,0 КГц
Метод сжатия                             : С потерями
Размер потока                            : 134 Мбайт (10%)
Выравнивание                             : Разделение по промежуткам
Продолжительность промежутка             : 42  мс. (1,00 видеокадр)
Время предзагрузки промежутка            : 500  мс.

pb.wtf



Скачать Диксиленд через торрент http://i77.fastpic.ru/big/2016/0426/3b/55802bd3bbddf9dd74180129c873903b.jpg Скачать фильм Диксиленд через торрент бесплантно в хорошем качестве Описание: Фильм рассказывает о молодом парне, который только что вышел из тюрьмы. Он влюбляется в привлекательную соседку, которая работает ... 7 10 3
Торрент: Зарегистрирован [2016-04-26 08:43] · скачан: 82 раз
Статус: T временная
Размер: 1.37 GB
Как cкачать? Как скачать Диксиленд через торрент | qTorrent

28-11-2019 20:33  

Отключить всю рекламу на сайте

    Дорогой пользователь! Огромная просьба, поблагодарите релизера, оцените раздачу и оставьте свои комментарий, если Вы скачали Диксиленд через торрент бесплатно! Внесите свою лепту в развитие PiratBit!
    Комментировать посты могут только пользователи прошедшие не сложную регистрацию
    Показать сообщения:    

    Диксиленд через торрент
    Скачать бесплатно Диксиленд
    Диксиленд скачать торрент
    Диксиленд смотреть онлайн
    Cкачать фильм Диксиленд бесплатно
    Диксиленд скачать торрент в хорошем качестве
    Диксиленд смотреть онлайн бесплатно в хорошем качестве


    Вы не можете начинать темы
    Вы не можете отвечать на сообщения
    Вы не можете редактировать свои сообщения
    Вы не можете удалять свои сообщения
    Вы не можете голосовать в опросах
    Вы не можете прикреплять файлы к сообщениям
    Вы можете скачивать файлы