Ссылка на приватное зеркало нашего сайта всего за 1$. Внимание количество ограничено!!!

2 сезон

iTunes

1 сезон

1

iTunes

iTunes

iTunes

1 сезон

RePack

30

ИГРА 18+

pack

ВАЖНО

!!Акция!!

Alien_RageХит недели

RePack

MK11
pack

Забери бонус

RePack

jed

!!Акция!!

Alien_Rage

RePack

fifa19

RePack

Assassins Creed: Odyssey

RePack

NEED FOR SPEED™ PAYBACK

4 сезон

9 сезон

Бесстыжие 9 сезон

Все сериалы

все сериалы на PB.wtf

RePack

FAR CRY 5
  

Как вода для шоколада / Como agua para chocolate (Альфонсо Арау) [1992, драма, мелодрама, BDRip 720p by msltel] MVO pb.wtf

Как вода для шоколада через торрент pb.wtf

Размер: 4.65 GB | Добавлен: 4 года 5 мес. назад | Торрент скачан:7 раз
Скачать  

26-04-2016 10:24 Как вода для шоколада Скачать торрент  

Название: Как вода для шоколада
Оригинальное название: Como agua para chocolate
Год выпуска: 1992
Страна: Мексика
Жанр: драма, мелодрама
Продолжительность: 01:45:24
Перевод: профессиональный многоголосый

Режиссёр: Альфонсо Арау

В ролях: Марко Леонарди, Луми Кавасос, Регина Торне, Ада Карраско, Марио Айвэн Мартинес, Арселия Рамирес, Ярели Арисменди, Клодетта Маилье, Пилар Аранда, Фарнесио де Берналь

Описание: Мексика начала прошлого века. По традиции, младшая дочь в семье не должна выходить замуж, а обязана ухаживать за своей матерью, пока та не сойдёт в могилу. Тита полюбила молодого человека, и он полюбил её, но, так как в руке младшей ему было отказано, женился на одной из старших сестёр, чтобы быть ближе к любимой. Любовь их осуществлялась оригинальным образом - через блюда, которые готовила Тита. Если они были приготовлены с любовью, это была пища богов; если Тита страдала, как это было на свадьбе сестры, всех гостей тошнило. Её страстная натура получает необычный, мистический выход в кулинарии...



Качество: BDRip 720p Сравнение с исходником
Формат: MKV
Видео: MPEG-4 AVC, 5676 Кбит/с, 1280x694, 23,976 кадра/с
Аудио 1: русский, AC3, 192 kbps, 2 ch, 48 kHz [профессиональный многоголосый, перевод Алексея Михалёва]
Аудио 2: испанский, AC3, 448 kbps, 6 ch, 48 kHz [оригинал]
Субтитры: английские
Общее
Уникальный идентификатор : 202937877087469409052060240789295396953 (0x98AC69D6C3FFFC51975F8C0E79E0F859)
Полное имя : D:\Video\Как вода для шоколада.1992.BDRip.720p.mkv
Формат : Matroska
Версия формата : Version 4 / Version 2
Размер файла : 4,65 Гбайт
Продолжительность : 1 ч. 45 м.
Общий поток : 6317 Кбит/сек
Дата кодирования : UTC 2016-04-26 06:04:32
Программа кодирования : mkvmerge v8.2.0 ('World of Adventure') 64bit
Библиотека кодирования : libebml v1.3.1 + libmatroska v1.4.2

Видео
Идентификатор : 1
Формат : AVC
Формат/Информация : Advanced Video Codec
Профиль формата : High@L4.1
Параметр CABAC формата : Да
Параметр ReFrames формата : 9 кадров
Идентификатор кодека : V_MPEG4/ISO/AVC
Продолжительность : 1 ч. 45 м.
Битрейт : 5676 Кбит/сек
Ширина : 1280 пикселей
Высота : 694 пикселя
Соотношение сторон : 1,85:1
Режим частоты кадров : Постоянный
Частота кадров : 23,976 (24000/1001) кадра/сек
Цветовое пространство : YUV
Субдискретизация насыщенности : 4:2:0
Битовая глубина : 8 бит
Тип развёртки : Прогрессивная
Бит/(Пиксели*Кадры) : 0.266
Размер потока : 4,18 Гбайт (90%)
Библиотека кодирования : x264 core 146 r2538 121396c
Настройки программы : cabac=1 / ref=9 / deblock=1:-3:-3 / analyse=0x3:0x113 / me=umh / subme=10 / psy=1 / psy_rd=1.00:0.15 / mixed_ref=1 / me_range=32 / chroma_me=1 / trellis=2 / 8x8dct=1 / cqm=0 / deadzone=21,11 / fast_pskip=1 / chroma_qp_offset=-3 / threads=6 / lookahead_threads=1 / sliced_threads=0 / nr=0 / decimate=1 / interlaced=0 / bluray_compat=0 / constrained_intra=0 / bframes=11 / b_pyramid=2 / b_adapt=2 / b_bias=0 / direct=1 / weightb=1 / open_gop=0 / weightp=2 / keyint=230 / keyint_min=23 / scenecut=40 / intra_refresh=0 / rc_lookahead=40 / rc=crf / mbtree=0 / crf=21.5 / qcomp=0.60 / qpmin=0 / qpmax=69 / qpstep=4 / vbv_maxrate=40000 / vbv_bufsize=50000 / crf_max=0.0 / nal_hrd=none / filler=0 / ip_ratio=1.40 / pb_ratio=1.30 / aq=1:1.00
Язык : Spanish
Default : Да
Forced : Нет

Аудио #1
Идентификатор : 2
Формат : AC-3
Формат/Информация : Audio Coding 3
Расширение режима : CM (complete main)
Параметр Endianness формата : Big
Идентификатор кодека : A_AC3
Продолжительность : 1 ч. 45 м.
Вид битрейта : Постоянный
Битрейт : 192 Кбит/сек
Каналы : 2 канала
Расположение каналов : Front: L R
Частота : 48,0 КГц
Частота кадров : 31,250 кадров/сек (1536 spf)
Метод сжатия : С потерями
Размер потока : 145 Мбайт (3%)
Заголовок : MVO (перевод Алексея Михалёва)
Язык : Russian
Default : Да
Forced : Нет

Аудио #2
Идентификатор : 3
Формат : AC-3
Формат/Информация : Audio Coding 3
Расширение режима : CM (complete main)
Параметр Endianness формата : Big
Идентификатор кодека : A_AC3
Продолжительность : 1 ч. 45 м.
Вид битрейта : Постоянный
Битрейт : 448 Кбит/сек
Каналы : 6 каналов
Расположение каналов : Front: L C R, Side: L R, LFE
Частота : 48,0 КГц
Частота кадров : 31,250 кадров/сек (1536 spf)
Метод сжатия : С потерями
Размер потока : 338 Мбайт (7%)
Заголовок : Original
Язык : Spanish
Default : Нет
Forced : Нет

Текст
Идентификатор : 4
Формат : UTF-8
Идентификатор кодека : S_TEXT/UTF8
Идентификатор кодека/Информация : UTF-8 Plain Text
Продолжительность : 1 ч. 42 м.
Битрейт : 46 бит/сек
Count of elements : 1046
Размер потока : 34,6 Кбайт (0%)
Заголовок : английский
Язык : English
Default : Нет
Forced : Нет
pb.wtf



Скачать Как вода для шоколада через торрент http://s016.radikal.ru/i334/1604/02/33a2a163e722.jpg Скачать фильм Как вода для шоколада через торрент бесплантно в хорошем качестве Описание: Мексика начала прошлого века. По традиции, младшая дочь в семье не должна выходить замуж, а обязана ухаживать за своей матерью, ... 10 10 1
Info! Золотая раздача, скачанное не засчитывается.
Торрент: Зарегистрирован [2016-04-26 10:24] · скачан: 7 раз
Статус: √ проверено
Размер: 4.65 GB
Как cкачать? Как скачать Как вода для шоколада через торрент | qTorrent

% Раздел Тема Автор DL S | L
Фильмы [HD 720p, 1080p] (Хороший звук DUB, MVO) [ 12.33 GB ] Как вода для шоколада / Como agua para chocolate [1992 BDRip 1080p by msltel] MVO msltel Скачать
1 | 0

28-11-2019 20:33  

Отключить всю рекламу на сайте

    Дорогой пользователь! Огромная просьба, поблагодарите релизера, оцените раздачу и оставьте свои комментарий, если Вы скачали Как вода для шоколада через торрент бесплатно! Внесите свою лепту в развитие PiratBit!
    Комментировать посты могут только пользователи прошедшие не сложную регистрацию
    Показать сообщения:    

    Как вода для шоколада через торрент
    Скачать бесплатно Как вода для шоколада
    Как вода для шоколада скачать торрент
    Как вода для шоколада смотреть онлайн
    Cкачать фильм Как вода для шоколада бесплатно
    Как вода для шоколада скачать торрент в хорошем качестве
    Как вода для шоколада смотреть онлайн бесплатно в хорошем качестве


    Вы не можете начинать темы
    Вы не можете отвечать на сообщения
    Вы не можете редактировать свои сообщения
    Вы не можете удалять свои сообщения
    Вы не можете голосовать в опросах
    Вы не можете прикреплять файлы к сообщениям
    Вы можете скачивать файлы