Лицензия

MVO

1

1 сезон

Лицензия

Лицензия

13

MVO

1 сезон

Deluxe Edition

pack

Рекомендуем

30

Repack

ВАЖНО

ВАЖНО

Ghostwire

RePack

jed

RePack

fifa19

RePack

RDR2

RePack

NEED FOR SPEED™ PAYBACK

RePack

Кинопоиск HD

 Острые козырьки 6 сезон

6 сезон

FAR CRY 6

RePack

Лицензия

MVO

1

1 сезон

1 сезон

Лицензия

  

Радиофобия / RadioPhobia (Julio Soto) [2005 г., документальный, TVRip, Оригинальный]

Радиофобия через торрент pb.wtf

Размер: 1002 MB | Добавлен: 6 лет 4 мес. назад | Торрент скачан:17 раз
Смотреть онлайн Радиофобия | Скачать   

26-04-2016 20:42 Радиофобия Скачать торрент  

Радиофобия / RadioPhobia
Год выпуска: 2006
Страна: Испания/США/Украина
Жанр: документальный
Продолжительность: 00:53:48
Перевод: Оригинальный
Субтитры: нет

Режиссер: Julio Soto

В ролях: В. Брюханов - бывший директор ЧАЭС,

Евгений Леоненко- бывший главврач городской больницы;

Любовь Сирота - бывший руководитель литературного объединения ПРОМЕТЕЙ;

Ирина Пуштарь - бывший прораб городского строительного управления;

А так же бывшие припятчане Оксана и Олег Савченко, Александр Амелькин, и другие.

Описание: Двадцать лет назад, 26 апреля 1986 года тест безопасности на Чернобыльской атомной электростанции в бывшем СССР положил начало самой большой атомной катастрофы в истории. Советский Союз, неспособный справиться с политической, людской и природоохранной катастрофой, "построил" стену молчания вокруг этого происшествия. Термин "радиофобия" возник как описание симптомов людей, которые страдают от радиации, что-то вроде социального клейма. Термин "Радиофобия" очень часто использовался в документах, связанных с Чернобыльской "Закрытой Зоной ".Фильм "РАДИОФОБИЯ" исследует Чернобыльскую катастрофу и ее последствия 20 лет спустя взглядом выживших людей, и тех, которые были на реакторе в ту судьбоносную ночь. В первый раз они вернулись в "Зону" "примирить" свое прошлое с руинами настоящего. В "Зоне" мы также встретимся с многими особенныим жителями, которые никогда не покидали эту радиоктавную и местами нереальную территорию.

Качество: TVRip
Формат: mpg
Видео кодек: MPEG2
Аудио кодек: MPEG Audio
Видео: 640x480 (4:3), 23.97 fps, 2487 kbps avg
Аудио: 44.1 kHz, MPEG Layer 2, 2 ch, ~64.00 kbps avg

Общее
Полное имя : C:\Users\Griz\Desktop\RadioPhobia.mpg
Формат : MPEG-PS
Размер файла : 1002 Мбайт
Продолжительность : 53 м.
Общий поток : 2602 Кбит/сек

Видео
Идентификатор : 224 (0xE0)
Формат : MPEG Video
Версия формата : Version 2
Профиль формата : [email protected]
Параметр BVOP формата : Да
Параметр матрицы формата : Выборочная
Параметр GOP формата : M=3, N=15
Структура изображения : Frame
Продолжительность : 53 м.
Битрейт : 2487 Кбит/сек
Максимальный битрейт : 2376 Кбит/сек
Ширина : 480 пикселей
Высота : 480 пикселей
Соотношение сторон : 4:3
Частота кадров : 23,976 (24000/1001) кадра/сек
Стандарт вещания : NTSC
Цветовое пространство : YUV
Субдискретизация насыщенности : 4:2:0
Битовая глубина : 8 бит
Тип развёртки : Чересстрочная
Порядок развёртки : Нижнее поле первое
Метод сжатия : С потерями
Бит/(Пиксели*Кадры) : 0.450
Временной код первого кадра : 00:00:00:00
Оригинал временного кода : Group of pictures header
GOP, открыто/закрыто : Открыто
GOP, открыто/закрыто на первом кадре : Закрыто
Размер потока : 957 Мбайт (96%)
Основные цвета : BT.470 System M
Характеристики трансфера : BT.470 System M
Коэффициенты матрицы : BT.601

Аудио
Идентификатор : 192 (0xC0)
Формат : MPEG Audio
Версия формата : Version 1
Профиль формата : Layer 2
Продолжительность : 53 м.
Вид битрейта : Постоянный
Битрейт : 64,0 Кбит/сек
Каналы : 2 канала
Частота : 44,1 КГц
Метод сжатия : С потерями
Размер потока : 24,6 Мбайт (2%)




Скачать Радиофобия через торрент https://pic1.kartinco.top/images/10/4v78g.jpg Скачать, смотреть онлайн Радиофобия бесплантно в хорошем качестве Описание: Двадцать лет назад, 26 апреля 1986 года тест безопасности на Чернобыльской атомной электростанции в бывшем СССР положил начало ... 10 10 1
Торрент: Зарегистрирован [2016-04-26 20:42] · скачан: 17 раз
Статус: √ проверено
Размер: 1002 MB
Как cкачать? Как скачать Радиофобия через торрент | UTorrent

28-11-2019 20:33  

Отключить вcю реклaмy на сайте

    Дорогой пользователь! Огромная просьба, поблагодарите релизера, оцените раздачу и оставьте свои комментарий, если Вы скачали Радиофобия через торрент бесплатно!!
    Комментировать посты могут только пользователи прошедшие не сложную регистрацию
    Показать сообщения:    


    Радиофобия через торрент
    Скачать бесплатно Радиофобия
    Радиофобия скачать торрент
    Радиофобия смотреть онлайн
    Cкачать фильм Радиофобия бесплатно
    Радиофобия скачать торрент в хорошем качестве
    Радиофобия смотреть онлайн бесплатно в хорошем качестве
    Вы не можете начинать темы
    Вы не можете отвечать на сообщения
    Вы не можете редактировать свои сообщения
    Вы не можете удалять свои сообщения
    Вы не можете голосовать в опросах
    Вы не можете прикреплять файлы к сообщениям
    Вы можете скачивать файлы