2 сезон

iTunes

1 сезон

1

iTunes

iTunes

iTunes

1 сезон

RePack

30

ИГРА 18+

pack

ВАЖНО

!!Акция!!

Alien_RageХит недели

RePack

MK11
pack

Забери бонус

RePack

jed

!!Акция!!

Alien_Rage

RePack

fifa19

RePack

Assassins Creed: Odyssey

RePack

NEED FOR SPEED™ PAYBACK

4 сезон

9 сезон

Бесстыжие 9 сезон

Все сериалы

все сериалы на PB.wtf

RePack

FAR CRY 5
  

Тьма / Darkness (Хайме Балагуэро) [2002, ужасы, BDRip 1080p by msltel] DUB pb.wtf

Тьма через торрент pb.wtf

Размер: 8.86 GB | Добавлен: 4 года 6 мес. назад | Торрент скачан:40 раз
Скачать  

27-04-2016 07:00 Тьма Скачать торрент  

Название: Тьма
Оригинальное название: Darkness
Год выпуска: 2002
Страна: США, Испания
Жанр: ужасы
Продолжительность: 01:42:31
Перевод: дублированный

Режиссёр: Хайме Балагуэро

В ролях: Анна Пакуин, Лена Олин, Иэн Глен, Джанкарло Джаннини, Феле Мартинес, Стефан Энквист, Ферми Рейксач, Франсеск Пахес, Крэйг Стивенсон, Паула Фернандез, Джемма Лозаньо, Ксавьер Айепус, Джозеф Робертс, Марк Феррандо, Джош Гаета, Мэтью Диксон

Описание: Вернувшись в Испанию после долгого пребывания в Америке, семья юной Регины поселяется в старом величественном особняке, пустовавшем почти 40 лет. Вскоре её младшему брату начинает казаться, что в холодных стенах их нового дома присутствует кто-то невидимый и страшный. Пугающие, необъяснимые события и странное поведение отца семейства подсказывают детям, что их мрачная обитель хранит некую зловещую тайну. Близится солнечное затмение. Поставит ли тьма точку в их бесконечных кошмарах или навсегда погрузит их в бездну всепоглощающего ужаса?...



Качество: BDRip 1080p Сравнение с исходником
Формат: MKV
Видео: MPEG-4 AVC, 10.4 Mбит/с, 1920x792, 23,976 кадра/с
Аудио 1: русский, AC3, 448 kbps, 6 ch, 48 kHz [дублированный, R5]
Аудио 2: английский, DTS, 1509 kbps, 6 ch, 48 kHz [оригинал]
Субтитры 1: русские
Субтитры 2: английские
Общее
Уникальный идентификатор : 210436523223708118536652498372489238713 (0x9E5099A33AA450C7AF4AD1233FDDD8B9)
Полное имя : D:\Video\Тьма.2002.BDRip.1080p.mkv
Формат : Matroska
Версия формата : Version 4 / Version 2
Размер файла : 8,86 Гбайт
Продолжительность : 1 ч. 42 м.
Общий поток : 12,4 Мбит/сек
Дата кодирования : UTC 2016-04-26 11:54:24
Программа кодирования : mkvmerge v8.2.0 ('World of Adventure') 64bit
Библиотека кодирования : libebml v1.3.1 + libmatroska v1.4.2

Видео
Идентификатор : 1
Формат : AVC
Формат/Информация : Advanced Video Codec
Профиль формата : High@L4.1
Параметр CABAC формата : Да
Параметр ReFrames формата : 4 кадра
Идентификатор кодека : V_MPEG4/ISO/AVC
Продолжительность : 1 ч. 42 м.
Битрейт : 10,4 Мбит/сек
Ширина : 1920 пикселей
Высота : 792 пикселя
Соотношение сторон : 2,40:1
Режим частоты кадров : Постоянный
Частота кадров : 23,976 (24000/1001) кадра/сек
Цветовое пространство : YUV
Субдискретизация насыщенности : 4:2:0
Битовая глубина : 8 бит
Тип развёртки : Прогрессивная
Бит/(Пиксели*Кадры) : 0.285
Размер потока : 7,45 Гбайт (84%)
Библиотека кодирования : x264 core 146 r2538 121396c
Настройки программы : cabac=1 / ref=4 / deblock=1:-2:-2 / analyse=0x3:0x113 / me=umh / subme=10 / psy=1 / psy_rd=1.00:0.15 / mixed_ref=1 / me_range=32 / chroma_me=1 / trellis=2 / 8x8dct=1 / cqm=0 / deadzone=21,11 / fast_pskip=1 / chroma_qp_offset=-3 / threads=6 / lookahead_threads=1 / sliced_threads=0 / nr=0 / decimate=1 / interlaced=0 / bluray_compat=0 / constrained_intra=0 / bframes=11 / b_pyramid=2 / b_adapt=2 / b_bias=0 / direct=1 / weightb=1 / open_gop=0 / weightp=2 / keyint=230 / keyint_min=23 / scenecut=40 / intra_refresh=0 / rc_lookahead=40 / rc=crf / mbtree=0 / crf=17.5 / qcomp=0.60 / qpmin=0 / qpmax=69 / qpstep=4 / vbv_maxrate=40000 / vbv_bufsize=50000 / crf_max=0.0 / nal_hrd=none / filler=0 / ip_ratio=1.40 / pb_ratio=1.30 / aq=1:1.00
Язык : English
Default : Да
Forced : Нет

Аудио #1
Идентификатор : 2
Формат : AC-3
Формат/Информация : Audio Coding 3
Расширение режима : CM (complete main)
Параметр Endianness формата : Big
Идентификатор кодека : A_AC3
Продолжительность : 1 ч. 42 м.
Вид битрейта : Постоянный
Битрейт : 448 Кбит/сек
Каналы : 6 каналов
Расположение каналов : Front: L C R, Side: L R, LFE
Частота : 48,0 КГц
Частота кадров : 31,250 кадров/сек (1536 spf)
Метод сжатия : С потерями
Размер потока : 328 Мбайт (4%)
Заголовок : DUB (R5)
Язык : Russian
Default : Да
Forced : Нет

Аудио #2
Идентификатор : 3
Формат : DTS
Формат/Информация : Digital Theater Systems
Режим : 16
Параметр Endianness формата : Big
Идентификатор кодека : A_DTS
Продолжительность : 1 ч. 42 м.
Вид битрейта : Постоянный
Битрейт : 1509 Кбит/сек
Каналы : 6 каналов
Расположение каналов : Front: L C R, Side: L R, LFE
Частота : 48,0 КГц
Частота кадров : 93,750 кадра/сек (512 spf)
Битовая глубина : 16 бит
Метод сжатия : С потерями
Размер потока : 1,08 Гбайт (12%)
Заголовок : Original
Язык : English
Default : Нет
Forced : Нет

Текст #1
Идентификатор : 4
Формат : UTF-8
Идентификатор кодека : S_TEXT/UTF8
Идентификатор кодека/Информация : UTF-8 Plain Text
Продолжительность : 1 ч. 37 м.
Битрейт : 64 бит/сек
Count of elements : 879
Размер потока : 46,0 Кбайт (0%)
Заголовок : русский
Язык : Russian
Default : Нет
Forced : Нет

Текст #2
Идентификатор : 5
Формат : UTF-8
Идентификатор кодека : S_TEXT/UTF8
Идентификатор кодека/Информация : UTF-8 Plain Text
Продолжительность : 1 ч. 36 м.
Битрейт : 33 бит/сек
Count of elements : 919
Размер потока : 23,5 Кбайт (0%)
Заголовок : английский
Язык : English
Default : Нет
Forced : Нет
pb.wtf



Скачать Тьма через торрент http://s019.radikal.ru/i644/1604/ff/2c11d79e9503.jpg Скачать фильм Тьма через торрент бесплантно в хорошем качестве Описание: Вернувшись в Испанию после долгого пребывания в Америке, семья юной Регины поселяется в старом величественном особняке, ... 10 10 1
Info! Золотая раздача, скачанное не засчитывается.
Торрент: Зарегистрирован [2016-04-27 07:00] · скачан: 40 раз
Статус: √ проверено
Размер: 8.86 GB
Как cкачать? Как скачать Тьма через торрент | qTorrent

% Раздел Тема Автор DL S | L
Фильмы [HD 720p, 1080p] (Хороший звук DUB, MVO) [ 9.37 GB ] Призрак и Тьма / The Ghost and the Darkness [1996 BDRip 720p] [Remastered] MVO DVO AVO - KORSAR lesnik125 Скачать
1 | 0
Фильмы [HD 720p, 1080p] (Хороший звук DUB, MVO) [ 14.3 GB ] Призрак и Тьма / The Ghost and the Darkness [1996 BDRip 1080p by msltel] MVO 2 x DVO AVO msltel Скачать
1 | 0
Фильмы [HD 720p, 1080p] (Хороший звук DUB, MVO) [ 5.57 GB ] Призрак и Тьма / The Ghost and the Darkness [1996 BDRip 720p by msltel] MVO 2 x DVO AVO msltel Скачать
1 | 0
Фильмы [HD 720p, 1080p] (Хороший звук DUB, MVO) [ 3.28 GB ] Тьма / Darkness [2002 BDRip 720p by msltel] DUB msltel Скачать
1 | 0
Фильмы (WEB-DL 720p, 1080p) [ 11.15 GB ] Призрак и Тьма / The Ghost and the Darkness [1996 HDTV 1080i] MVO / DVO / AVO -=DANTE=- Скачать
1 | 0
Фильмы 2001-2005 [ 1.46 GB ] Тьма / Darkness [2002 DVDRip] DUB stalonе Скачать
1 | 0

28-11-2019 20:33  

Отключить всю рекламу на сайте

27-04-2016 12:58 Тьма Скачать торрент  

Круто! Искал этот фильм давно) Только название забыл) Еще один ищу. Может кто помнит фильм где в тени были порталы, то ли в ад, то ли еще куда. И там существа дикие жили, похожие на существ из фильма Черная дыра.pb.wtf



27-04-2016 16:13 Тьма Скачать торрент  

Miramax писал(а):

Круто! Искал этот фильм давно) Только название забыл) Еще один ищу. Может кто помнит фильм где в тени были порталы, то ли в ад, то ли еще куда. И там существа дикие жили, похожие на существ из фильма Черная дыра.

Один и в темноте вроде.pb.wtf



    Дорогой пользователь! Огромная просьба, поблагодарите релизера, оцените раздачу и оставьте свои комментарий, если Вы скачали Тьма через торрент бесплатно! Внесите свою лепту в развитие PiratBit!
    Комментировать посты могут только пользователи прошедшие не сложную регистрацию
    Показать сообщения:    

    Тьма через торрент
    Скачать бесплатно Тьма
    Тьма скачать торрент
    Тьма смотреть онлайн
    Cкачать фильм Тьма бесплатно
    Тьма скачать торрент в хорошем качестве
    Тьма смотреть онлайн бесплатно в хорошем качестве


    Вы не можете начинать темы
    Вы не можете отвечать на сообщения
    Вы не можете редактировать свои сообщения
    Вы не можете удалять свои сообщения
    Вы не можете голосовать в опросах
    Вы не можете прикреплять файлы к сообщениям
    Вы можете скачивать файлы