Ссылка на приватное зеркало всего за 1$. Внимание количество ограничено!!!

OK

1+1

iTunes

мы

OK

1

WEB-DLRip

Джокер

Пифагор

Ведьмак / The Witcher сериал

Лицензия

ПШазам

ОК

Оно 2

iTunes

30
pack

Вам бонус

ВАЖНО

!!Акция!!

Alien_RageХит недели

RePack

Resident Evil 21

ИГРА 18+

pack

RePack

jed

!!Акция!!

Alien_Rage

RePack

fifa19

RePack

Assassins Creed: Odyssey

RePack

NEED FOR SPEED™ PAYBACK

4 сезон

9 сезон

Бесстыжие 9 сезон

Все сериалы

все сериалы на PB.wtf

RePack

FAR CRY 5
  

Все по закону / Серия 1-14 из 14 (Геннадий Байсак, Сергей Лесогоров) [2016, Криминал, SATRip] pb.wtf

Все по закону через торрент pb.wtf

Размер: 7.52 GB | Добавлен: 3 года 8 мес. назад | Торрент скачан:282 раза
Скачать  

27-04-2016 08:50 Все по закону Скачать торрент  

Все по закону


Год выпуска: 2016
Страна: Россия
Жанр: Криминал
Перевод: Оригинальный
Длительность: ~ 00:44:00
Режиссеры: Геннадий Байсак, Сергей Лесогоров
В ролях: Игорь Стам, Евгения Лоза, Полина Долинская, Сергей Габриэлян, Олег Чевелёв, Александр Носик, Евгений Дакот, Ольга Машная, Александр Воробьёв (II), Александр Яковлев (IV), Татьяна Максимова (IV)
Описание: Основной герой трудится обыкновенным полицейским, хотя он совершенно не смахивает на собственных сослуживцев. Юноша он слишком правдивый и в жизни, и в работе. Вследствие чего иные полицейские его не уважают. Он и сам взяток не берет, и прочим проворачивать «черные делишки» не позволяет. Ему светит противостоять как беззаконию, так и коррумпированному окружению. Работать одному в высшей степени трудно, в особенности как скоро коллеги постоянно пытаются сбить с верного пути. Герой должен будет сложить всё своё мужество воедино, чтоб выстоять в данном отчаянном противостоянии добра и зла. Виноватые не убегут от ответа.
Качество: SATRip
Формат: AVI
Видео кодек: XviD
Аудио кодек: MP3
Видео: 720x400, 25 fps, ~1800 kbps
Аудио: 48 КГц, 128 Кбит/сек, 2 канала

Код:

Общее
Полное имя                               : Все по закону 01-14.avi
Формат                                   : AVI
Формат/Информация                        : Audio Video Interleave
Размер файла                             : 601 Мбайт
Продолжительность                        : 43 м.
Общий поток                              : 1936 Кбит/сек
Программа кодирования                    : VirtualDubMod 1.5.10.3 | www.virtualdub-fr.org || (build 2550/release)
Библиотека кодирования                   : VirtualDub build 29808/release

Видео
Идентификатор                            : 0
Формат                                   : MPEG-4 Visual
Профиль формата                          : Advanced Simple@L5
Параметр BVOP формата                    : 2
Параметр QPel формата                    : Нет
Параметр GMC формата                     : Без точки перехода
Параметр матрицы формата                 : Default (H.263)
Идентификатор кодека                     : XVID
Идентификатор кодека/Подсказка           : XviD
Продолжительность                        : 43 м.
Битрейт                                  : 1798 Кбит/сек
Ширина                                   : 720 пикселей
Высота                                   : 400 пикселей
Соотношение сторон                       : 16:9
Частота кадров                           : 25,000 кадров/сек
Цветовое пространство                    : YUV
Субдискретизация насыщенности            : 4:2:0
Битовая глубина                          : 8 бит
Тип развёртки                            : Прогрессивная
Метод сжатия                             : С потерями
Бит/(Пиксели*Кадры)                      : 0.250
Размер потока                            : 558 Мбайт (93%)
Библиотека кодирования                   : XviD 1.2.1 (UTC 2008-12-04)

Аудио
Идентификатор                            : 1
Формат                                   : MPEG Audio
Версия формата                           : Version 1
Профиль формата                          : Layer 3
Режим                                    : Joint stereo
Расширение режима                        : MS Stereo
Идентификатор кодека                     : 55
Идентификатор кодека/Подсказка           : MP3
Продолжительность                        : 43 м.
Вид битрейта                             : Постоянный
Битрейт                                  : 128 Кбит/сек
Каналы                                   : 2 канала
Частота                                  : 48,0 КГц
Метод сжатия                             : С потерями
Размер потока                            : 39,8 Мбайт (7%)
Выравнивание                             : Соединение по промежуткам
Продолжительность промежутка             : 40  мс. (1,00 видеокадр)
Время предзагрузки промежутка            : 504  мс.
Библиотека кодирования                   : LAME3.99r
Настройки программы                      : -m j -V 4 -q 2 -lowpass 17 -b 128

При каждом добавлении создётся новый торрент. Чтобы начать докачку новой серии, пользователям необходимо сделать следующее:
1. Остановить скачивание.
2. Удалить старый торрент у себя из клиента (старые серии удалять не надо).
3. Скачать новый торрент и запустить его у себя в клиенте вместо старого, при этом указать клиенту путь в старую папку куда и должно происходить скачивание новых серий.Ваш клиент при этом должен произвести хеширование (проверку) старой папки (если не производит сам - помогите ему сделать это), и будет докачивать только те серии которых у вас ещё нет. Старые серии при этом не удаляются, а продолжают раздаваться! Eсли вы уже удалили старые серии, то предотвратить повторную закачку старых серий можно, отжав галочку в соответсвующих местах при запуске нового торрента. По возможности, желательно не удалять старые серии как можно дольше чтобы релизёр не столько продолжал раздавать старые серии, а смог сконцентрироваться на новых.
Рекламы НЕТ ! Обязательно активируйте DHT ! pb.wtf



Скачать Все по закону через торрент http://i78.fastpic.ru/big/2016/0427/ab/f67b82888f743a24a4125dae00d98aab.png Скачать фильм Все по закону через торрент бесплантно в хорошем качестве Описание: Основной герой трудится обыкновенным полицейским, хотя он совершенно не смахивает на собственных сослуживцев. Юноша он слишком ... 9.8 10 16
Info! Серебряная раздача, засчитывается только 50% скачанного.
Торрент: Зарегистрирован [2016-05-06 09:33] · скачан: 282 раз
Статус: √ проверено
Размер: 7.52 GB
Как cкачать? Как скачать Все по закону через торрент | qTorrent



Последний раз редактировалось: nobana (2016-05-06 09:33), всего редактировалось 6 раз(а)

28-11-2019 20:33  

Отключить всю рекламу на сайте

27-04-2016 10:21 Все по закону Скачать торрент  

достали эти мусора и в жизни и в кино. у нас в стране только про любовь и ментов снимают сериалы. кинопоиск по этому названию намекает: "Скорее всего, вы ищете "Проститутка из публичного дома имеет все права по закону"... такое ощущение что у нас в стране творческие импотенты сценарии пишутpb.wtf



29-04-2016 14:58 Все по закону Скачать торрент  

кто начал смотреть . отпишите как сериальчик ???pb.wtf



04-05-2016 08:28 Все по закону Скачать торрент  

сокол79 писал(а):

кто начал смотреть . отпишите как сериальчик ???

Терпимо можно смотреть.pb.wtf



04-05-2016 08:44 Все по закону Скачать торрент  

сокол79 писал(а):

кто начал смотреть . отпишите как сериальчик ???

вроде нормально - не напрягает во всяком случаеpb.wtf



11-05-2016 05:55 Все по закону Скачать торрент  

нормуль сериал. pb.wtf



    Дорогой пользователь! Огромная просьба, поблагодарите релизера, оцените раздачу и оставьте свои комментарий, если Вы скачали Все по закону через торрент бесплатно! Внесите свою лепту в развитие PiratBit!
    Комментировать посты могут только пользователи прошедшие не сложную регистрацию
    Показать сообщения:    

    Все по закону через торрент
    Скачать бесплатно Все по закону
    Все по закону скачать торрент
    Все по закону смотреть онлайн
    Cкачать фильм Все по закону бесплатно
    Все по закону скачать торрент в хорошем качестве
    Все по закону смотреть онлайн бесплатно в хорошем качестве


    Вы не можете начинать темы
    Вы не можете отвечать на сообщения
    Вы не можете редактировать свои сообщения
    Вы не можете удалять свои сообщения
    Вы не можете голосовать в опросах
    Вы не можете прикреплять файлы к сообщениям
    Вы можете скачивать файлы