Ссылка на приватное зеркало нашего сайта всего за 1$. Внимание количество ограничено!!!

2 сезон

iTunes

1 сезон

1

2 сезон

2 сезон

iTunes

1 сезон

RePack

30

Новинка

ВАЖНО

ИГРА 18+

pack

RePack

MK11
pack

Забери бонус

RePack

jed

!!Акция!!

Alien_Rage

RePack

fifa19

RePack

Assassins Creed: Odyssey

RePack

NEED FOR SPEED™ PAYBACK

4 сезон

9 сезон

Бесстыжие 9 сезон

Все сериалы

все сериалы на PB.wtf

RePack

FAR CRY 5
  

Морская полиция: Спецотдел / NCIS: Naval Criminal Investigative Service / Сезон: 9 / Серии 1-24 из 24 (Дональд П. Беллисарио) [2011 г., боевик, триллер, драма, комедия, криминал, детектив, HDTVRip] MVO pb.wtf

Морская полиция: Спецотдел через торрент pb.wtf

Размер: 8.48 GB | Добавлен: 4 года 6 мес. назад | Торрент скачан:2 раза
Скачать  

27-04-2016 19:22 Морская полиция: Спецотдел Скачать торрент  

Морская полиция: СпецотделNCIS: Naval Criminal Investigative Service -

Год выпуска: 2011
Страна: США
Жанр: боевик, триллер, драма, комедия, криминал, детектив
Продолжительность: ~ 00:43:00 x 24
Перевод: Профессиональный многоголосый FreeVisiOnTV
Сезон: 9
Серии: 1-24 из 24
Режиссер: Дональд П. Беллисарио, Тони Уормби, Терренс О’Хара
Сценарий: Дональд П. Беллисарио, Дон МакГилл, Стивен Д. Биндер
Продюссер: Дональд П. Беллисарио, Эйвери С. Дрюи, Марк Хоровиц
Оператор: Уильям Дж. Уэбб, Кристос Битсакос, Джон Л. Кункель
Композитор: Брайан Кирк, Джозеф Конлан, Грег Барнс
Художник: Роберт Дж. Бэйкон, Чэз Батчер, Линда Кинг
Монтаж: Грегори Гонц, Дэвид С. Кук, Митчел Стэнли
Премьера в мире: 20 сентября 2011 г.

Основной состав:

Марк Хармон (Лерой Джетро Гиббс), Майкл Уэзерли (Энтони Ди Ноззо), Саша Александр (Кейтлин Тодд), Коте де Пабло (Зива Давид), Эмили Уикершем (Элеанор Бишот), Поли Перретт (Эбби Шуто),Шон Мюррэй (Тимоти МакГи), Лорен Холли (Дженни Шепард), Роки Кэрролл (Леон Вэнс), Дэвид Маккаллум (Доктор Дональд «Даки» Мэллард), Брайан Дитцен (Джимми Палмер)
Второстепенный состав:

Джо Спано (Тобиас С. Форнелл), Алан Дейл (Томас Морроу), Мьюз Уотсон (Майк Фрэнкс), Ральф Уэйт (Джексон Гиббс), Роберт Вагнер (Энтони Диноззо-старший), Сюзанна Томпсон (Холлис Манн), Дайан Нил (Специальный агент Эбигейл Борин), Майкл Нури (Элай Дэвид), Джейми Ли Кертис (Доктор Саманта Райан), Энрике Мурсиано (Рэй Крус), Рена Софер (Маргарет Эллисон Харт), Лиза Лапира (Мишель Ли), Скотти Томпсон (Джинн Бенуа), Джессика Стин (Паула Кэссиди)
Описание: Сериал NCIS освещает деятельность спецагентов вымышленной команды, относящейся к Службе криминальных расследований ВМС США, чья штаб-квартира располагается в Washington Navy Yard в Вашингтоне.. Он занимается расследованием преступлений, совершенных в отношении американских моряков, либо американскими моряками.. Также отдельные серии касаются расследований террористической деятельности и имеют тематику шпионских фильмов.. Группу следователей возглавляет специальный агент Гиббс.. Его команда - это экс-детектив Энтони ДиНоззо, экс-сотрудник секретной службы Кейтлин Тодд, выхоженка из Моссад - Зива Давид (с 3 сезона), специалисты в области судмедэкспертизы - Эбби Шуто и Дональд Маллард, а также профессионал в области IT - Тимоти МакГи..
Качество: HDTVRip
Формат: AVI
Видео кодек: XviD
Аудио кодек: Mp3
Видео: 624x352, ~ 1 000 kbps, 23.976 fps
Аудио: русский / 2 ch / 44,1 kHz / 192 kbps

1. «Nature of the Beast» / «Природа зверя»
2. «Restless» / «Беспокойный»
3. «The Penelope Papers» / «Бумаги Пенелопы»
4. «Enemy on the Hill» / «Враг на холме»
5. «Safe Harbor» / «Безопасная гавань»
6. «Thirst» / «Жажда»
7. «Devil’s Triangle» / «Треугольник Дьявола»
8. «Engaged (Part I)» / «Занятой. Часть 1»
9. «Engaged (Part II)» / «Занятой. Часть 2»
10. «Sins of the Father» / «Грехи отца»
11. «Newborn King» / «Новорождённый король»
12. «Housekeeping» / «Уборка»
13. «A Desperate Man» / «Отчаянный мужчина»
14. «Life Before His Eyes» / «Жизнь перед глазами»
15. «Secrets» / «Секреты»
16. «Psych Out» / «Нервный срыв»
17. «Need to Know» / «Вам нужно знать»
18. «The Tell» / «Язык тела»
19. «The Good Son» / «Хороший сын»
20. «The Missionary Position» / «Миссионерская позиция»
21. «Rekindled» / «Возрождённый»
22. «Playing With Fire» / «Игра с огнём»
23. «Up in Smoke» / «Всё идёт прахом»
24. «Till Death Do Us Part» / «Пока смерть не разлучит нас»
скриншот   скриншот   скриншот   скриншот   скриншот   скриншот   скриншот  


General
Complete name : D:\NCIS\NCIS. Season 9\Morskaya.policiya.Specotdel.(9.sezon.01.serija.iz.24).2011.XviD.HDTVRip.FreeVisiOnTV.avi
Format : AVI
Format/Info : Audio Video Interleave
File size : 378 MiB
Duration : 43mn 26s
Overall bit rate : 1 217 Kbps
Writing library : VirtualDub build 32817/release

Video #0
ID : 0
Format : MPEG-4 Visual
Format profile : Simple@L5
Format settings, BVOP : No
Format settings, QPel : No
Format settings, GMC : No warppoints
Format settings, Matrix : Default (H.263)
Codec ID : XVID
Codec ID/Hint : XviD
Duration : 43mn 26s
Bit rate : 1 016 Kbps
Width : 624 pixels
Height : 352 pixels
Display aspect ratio : 16:9
Frame rate : 23.976 fps
Color space : YUV
Chroma subsampling : 4:2:0
Bit depth : 8 bits
Scan type : Progressive
Compression mode : Lossy
Bits/(Pixel*Frame) : 0.193
Stream size : 316 MiB (83%)
Writing library : XviD 64

Audio #1
ID : 1
Format : MPEG Audio
Format version : Version 1
Format profile : Layer 3
Codec ID : 55
Codec ID/Hint : MP3
Duration : 43mn 26s
Bit rate mode : Constant
Bit rate : 192 Kbps
Channel(s) : 2 channels
Sampling rate : 44.1 KHz
Compression mode : Lossy
Stream size : 59.7 MiB (16%)
Alignment : Split accross interleaves
Interleave, duration : 42 ms (1.00 video frame)
Interleave, preload duration : 500 ms



pb.wtf



Скачать Морская полиция: Спецотдел через торрент http://pic.kartinco.top/images/11/yki46.jpg Скачать фильм Морская полиция: Спецотдел через торрент бесплантно в хорошем качестве Описание: Сериал NCIS освещает деятельность спецагентов вымышленной команды, относящейся к Службе криминальных расследований ВМС США, чья ... 10 10 3
Info! Золотая раздача, скачанное не засчитывается.
Торрент: Зарегистрирован [2016-04-27 19:22] · скачан: 2 раз
Статус: √ проверено
Размер: 8.48 GB
Как cкачать? Как скачать Морская полиция: Спецотдел через торрент | qTorrent



Последний раз редактировалось: MicroCharmelle (2017-03-31 08:57), всего редактировалось 1 раз

28-11-2019 20:33  

Отключить всю рекламу на сайте

04-11-2016 20:57 Морская полиция: Спецотдел Скачать торрент  

Привет, встань раздачу и спасибо большое.pb.wtf



    Дорогой пользователь! Огромная просьба, поблагодарите релизера, оцените раздачу и оставьте свои комментарий, если Вы скачали Морская полиция: Спецотдел через торрент бесплатно! Внесите свою лепту в развитие PiratBit!
    Комментировать посты могут только пользователи прошедшие не сложную регистрацию
    Показать сообщения:    

    Морская полиция: Спецотдел через торрент
    Скачать бесплатно Морская полиция: Спецотдел
    Морская полиция: Спецотдел скачать торрент
    Морская полиция: Спецотдел смотреть онлайн
    Cкачать фильм Морская полиция: Спецотдел бесплатно
    Морская полиция: Спецотдел скачать торрент в хорошем качестве
    Морская полиция: Спецотдел смотреть онлайн бесплатно в хорошем качестве


    Вы не можете начинать темы
    Вы не можете отвечать на сообщения
    Вы не можете редактировать свои сообщения
    Вы не можете удалять свои сообщения
    Вы не можете голосовать в опросах
    Вы не можете прикреплять файлы к сообщениям
    Вы можете скачивать файлы