Ссылка на приватное зеркало нашего сайта всего за 1$. Внимание количество ограничено!!!

2 сезон

iTunes

1 сезон

1

2 сезон

2 сезон

iTunes

1 сезон

RePack

30

Ultimate

ВАЖНО

ИГРА 18+

pack

RePack

MK11
pack

Забери бонус

RePack

jed

!!Акция!!

Alien_Rage

RePack

fifa19

RePack

Assassins Creed: Odyssey

RePack

NEED FOR SPEED™ PAYBACK

4 сезон

9 сезон

Бесстыжие 9 сезон

Все сериалы

все сериалы на PB.wtf

RePack

FAR CRY 5
  

Да здравствует Цезарь! / Hail, Caesar! (Итан Коэн, Джоэл Коэн) [2016, комедия, детектив, WEB DL 1080p] [iTunes] pb.wtf

Да здравствует Цезарь! через торрент pb.wtf

Размер: 4.06 GB | Добавлен: 4 года 6 мес. назад | Торрент скачан:786 раз
Скачать  

27-04-2016 21:34 Да здравствует Цезарь! Скачать торрент  

Да здравствует Цезарь! / Hail, Caesar!«Lights. Camera. Abduction»
Год выпуска » 2016
Страна » Великобритания, США, Япония
Жанр » Комедия, детектив
Продолжительность » 01:46:06
Перевод » Дублированный • iTunes
Субтитры » Отсутствуют

В ролях
» Джош Бролин, Джордж Клуни, Олден Эренрайк, Рэйф Файнс, Скарлетт Йоханссон, Тильда Суинтон, Фрэнсис МакДорманд, Ченнинг Татум, Джона Хилл, Вероника Осорио


Режиссёр
» Итан Коэн, Джоэл Коэн

» Добро пожаловать в Голливуд — империю блеска, роскоши и порока. Здесь обитают кумиры миллионов. Что ни день — пиршество для светских хроникеров. И вот однажды исчезает исполнитель главной роли в фильме «Да здравствует Цезарь!». Ни жена, ни многочисленные любовницы не знают, где он. И теперь продюсера студии ждет веселый денек, ведь он должен найти звезду раньше репортеров…

• Качество » WEB-DL 1080p
• Формат » mkv
• Видео кодек » AVC
• Аудио кодек » AC3
• Видео » AVC at 4987 kb/s, 1914x1032 at 23.976 fps
• Аудио » Русский (AC-3 / 6 ch / 384 kbps / 48,0 КГц / 16 bit )



Бюджет: $22 000 000
Сборы в США: $30 080 225
Сборы в мире: + $31 283 055 = $61 363 280
Сборы в России: $1 002 617
Дата мировой премьеры: 1 февраля 2016
Дата российской премьеры: 3 марта 2016, «UPI»
Общее
Уникальный идентификатор : 252451856042548050468120177496567934166 (0xBDEC757AEB4FA84AB2D01A2E12FD6CD6)
Полное имя : F:\Xa1L.Se3aP.2016.D.WEB-DL.1080p..mkv
Формат : Matroska
Версия формата : Version 4 / Version 2
Размер файла : 4,06 Гбайт
Продолжительность : 1 ч. 46 м.
Общий поток : 5480 Кбит/сек
Дата кодирования : UTC 2016-04-27 18:07:59
Программа кодирования : mkvmerge v8.3.0 ('Over the Horizon') 64bit
Библиотека кодирования : libebml v1.3.1 + libmatroska v1.4.2
DURATION : 01:46:06.016000000
NUMBER_OF_FRAMES : 198938
NUMBER_OF_BYTES : 305568768
_STATISTICS_WRITING_APP : mkvmerge v8.3.0 ('Over the Horizon') 64bit
_STATISTICS_WRITING_DATE_UTC : 2016-04-27 18:07:59
_STATISTICS_TAGS : BPS DURATION NUMBER_OF_FRAMES NUMBER_OF_BYTES

Видео
Идентификатор : 1
Формат : AVC
Формат/Информация : Advanced Video Codec
Профиль формата : High@L4.0
Параметр CABAC формата : Да
Параметр ReFrames формата : 4 кадра
Идентификатор кодека : V_MPEG4/ISO/AVC
Продолжительность : 1 ч. 46 м.
Битрейт : 4987 Кбит/сек
Ширина : 1914 пикселей
Высота : 1032 пикселя
Соотношение сторон : 1,85:1
Режим частоты кадров : Постоянный
Частота кадров : 23,976 кадра/сек
Цветовое пространство : YUV
Субдискретизация насыщенности : 4:2:0
Битовая глубина : 8 бит
Тип развёртки : Прогрессивная
Бит/(Пиксели*Кадры) : 0.105
Размер потока : 3,70 Гбайт (91%)
Язык : English
Default : Да
Forced : Нет
Основные цвета : BT.709
Характеристики трансфера : BT.709
Коэффициенты матрицы : BT.709

Аудио
Идентификатор : 2
Формат : AC-3
Формат/Информация : Audio Coding 3
Расширение режима : CM (complete main)
Параметр Endianness формата : Big
Идентификатор кодека : A_AC3
Продолжительность : 1 ч. 46 м.
Вид битрейта : Постоянный
Битрейт : 384 Кбит/сек
Каналы : 6 каналов
Расположение каналов : Front: L C R, Side: L R, LFE
Частота : 48,0 КГц
Битовая глубина : 16 бит
Метод сжатия : С потерями
Размер потока : 291 Мбайт (7%)
Язык : Russian
Default : Да
Forced : Нет

Меню
00:00:00.000 : en:глава 1
00:04:01.000 : en:глава 2
00:09:40.000 : en:глава 3
00:13:00.000 : en:глава 4
00:17:36.000 : en:глава 5
00:22:31.000 : en:глава 6
00:29:57.000 : en:глава 7
00:35:39.000 : en:глава 8
00:41:51.000 : en:глава 9
00:47:11.000 : en:глава 10
00:50:42.000 : en:глава 11
00:57:27.000 : en:глава 12
01:01:19.000 : en:глава 13
01:07:23.000 : en:глава 14
01:14:04.000 : en:глава 15
01:17:43.000 : en:глава 16
01:22:40.000 : en:глава 17
01:28:56.000 : en:глава 18
01:33:52.000 : en:глава 19
01:39:27.000 : en:глава 20
[/code]
скриншот   скриншот   скриншот  
pb.wtf



Скачать Да здравствует Цезарь! через торрент http://i74.fastpic.ru/big/2015/1218/b5/c39d072d168dbcde95d1a17f670689b5.gif Скачать фильм Да здравствует Цезарь! через торрент бесплантно в хорошем качестве В ролях » Джош Бролин, Джордж Клуни, Олден Эренрайк, Рэйф Файнс, Скарлетт Йоханссон, Тильда Суинтон, Фрэнсис МакДорманд, Ченнинг Татум, ... 9.5 10 21
Info! Золотая раздача, скачанное не засчитывается.
Торрент: Зарегистрирован [2016-04-27 21:34] · скачан: 786 раз
Статус: √ проверено
Размер: 4.06 GB
Как cкачать? Как скачать Да здравствует Цезарь! через торрент | qTorrent

% Раздел Тема Автор DL S | L
R.G. Resident & PiratVoice - Фильмы, Видео [ 1.85 GB ] Да здравствует Цезарь! / Hail Caesar! [2016 WEB-DLRip-AVC от R.G. Resident] ] -Lexx- Скачать
2 | 0
Фильмы 2016 [DVDrip, WEB-DLRip, HDrip] (DUB, MVO) [ 2.17 GB ] Да здравствует Цезарь! / Hail Caesar! [2016 HDRip "BD CEE"] coc900 Скачать
1 | 0
Фильмы [HD 720p, 1080p] (Хороший звук DUB, MVO) [ 7.76 GB ] Да здравствует Цезарь! / Hail Caesar! [2016 BDRip 720p от _denis_100 / NNNB] DUB + 2xAVO + Original + Sub _denis_100 Скачать
1 | 0
Фильмы (Blu-ray, BD-Remux, HDDVD) [ 41.63 GB ] Да здравствует Цезарь! / Hail Caesar! [2016 Blu-Ray] Russian Mafia Скачать
1 | 1
Фильмы 2016 [DVDrip, WEB-DLRip, HDrip] (DUB, MVO) [ 1.46 GB ] Да здравствует Цезарь! / Hail Caesar! [2016 WEB-DLRip ] Twi7ter Скачать
1 | 0
Фильмы (WEB-DL 720p, 1080p) [ 3.2 GB ] Да здравствует Цезарь! / Hail Caesar! [2016 WEB-DL 720p] $-DRON-$ Скачать
1 | 0
Фильмы 2016 [DVDrip, WEB-DLRip, HDrip] (DUB, MVO) [ 1.46 GB ] Да здравствует Цезарь! / Hail Caesar! [2016 мюзикл WEB-DLRip] killermax2013 Скачать
1 | 0

28-11-2019 20:33  

Отключить всю рекламу на сайте

28-04-2016 18:54 Да здравствует Цезарь! Скачать торрент  

Фильм нахваливали, но оценка на кинопоиске не столь велика. В любом случае это не отвернуло от просмотра. Благодарю за раздачу pb.wtf



05-05-2016 14:06 Да здравствует Цезарь! Скачать торрент  

Шлакpb.wtf



    Дорогой пользователь! Огромная просьба, поблагодарите релизера, оцените раздачу и оставьте свои комментарий, если Вы скачали Да здравствует Цезарь! через торрент бесплатно! Внесите свою лепту в развитие PiratBit!
    Комментировать посты могут только пользователи прошедшие не сложную регистрацию
    Показать сообщения:    

    Да здравствует Цезарь! через торрент
    Скачать бесплатно Да здравствует Цезарь!
    Да здравствует Цезарь! скачать торрент
    Да здравствует Цезарь! смотреть онлайн
    Cкачать фильм Да здравствует Цезарь! бесплатно
    Да здравствует Цезарь! скачать торрент в хорошем качестве
    Да здравствует Цезарь! смотреть онлайн бесплатно в хорошем качестве


    Вы не можете начинать темы
    Вы не можете отвечать на сообщения
    Вы не можете редактировать свои сообщения
    Вы не можете удалять свои сообщения
    Вы не можете голосовать в опросах
    Вы не можете прикреплять файлы к сообщениям
    Вы можете скачивать файлы