Ссылка на приватное зеркало нашего сайта всего за 1$. Внимание количество ограничено!!!

2 сезон

iTunes

1 сезон

1

iTunes

iTunes

iTunes

1 сезон

RePack

30

ИГРА 18+

pack

ВАЖНО

!!Акция!!

Alien_RageХит недели

RePack

MK11
pack

Забери бонус

RePack

jed

!!Акция!!

Alien_Rage

RePack

fifa19

RePack

Assassins Creed: Odyssey

RePack

NEED FOR SPEED™ PAYBACK

4 сезон

9 сезон

Бесстыжие 9 сезон

Все сериалы

все сериалы на PB.wtf

RePack

FAR CRY 5
  

Дэдпул / Deadpool (Тим Миллер) [2016, фантастика, фэнтези, боевик, комедия, приключения, BDRip 1080p] Dub [iTunes], AVO, VO pb.wtf

Дэдпул через торрент pb.wtf

Размер: 12.08 GB | Добавлен: 4 года 6 мес. назад | Торрент скачан:1050 раз
Скачать  

27-04-2016 23:37 Дэдпул Скачать торрент  

«Дерзкий как пуля резкий»
Год выпуска » 2016
Страна » США, Канада
Жанр » Фантастика, фэнтези, боевик, комедия, приключения
Продолжительность » 01:48:09
Перевод » Профессиональный (дублированный) • iTunes Russia
Перевод » Авторский (одноголосый, закадровый) Е.Гаевский + Любительский (одноголосый, закадровый) В.Замез
Субтитры » Russian (Forced, iTunes), Russian (iTunes), Ukrainian (Forced, iTunes), Ukrainian (iTunes), English

В ролях
»Райан Рейнольдс / Ryan Reynolds (Wade / Deadpool), Морена Баккарин / Morena Baccarin (Vanessa), Эд Скрейн / Ed Skrein (Ajax), ТиДжей Миллер / T.J. Miller (Weasel), Джина Карано / Gina Carano (Angel Dust), Брианна Хилдебранд / Brianna Hildebrand (Negasonic Teenage Warhead), Стефан Капичич / Stefan Kapicic (Colossus, озвучка), Лесли Уггэмс / Leslie Uggams (Blind Al)


Режиссёр
» Тим Миллер

» Уэйд Уилсон - наёмник. Будучи побочным продуктом программы вооружённых сил под названием «Оружие X», Уилсон приобрёл невероятную силу, проворство и способность к исцелению. Но страшной ценой: его клеточная структура постоянно меняется, а здравомыслие сомнительно. Всё, чего Уилсон хочет, - это держаться на плаву в социальной выгребной яме. Но течение в ней слишком быстрое.

• Качество » BDRip 1080p
• Формат » MKV
• Видео кодек » AVC
• Аудио кодек » AC3, DTS
• Видео »1920x806 at 23.976 fps, x264@L4.1, ~13200 kbps avg
• Аудио » Русский (AC-3 / 6 ch / 384 kbps / 48,0 КГц / 16 bit )
• Аудио » Русский-|Авторский, Е.Гаевский|(AC-3 / 2 ch / 192 kbps / 48,0 КГц / 16 bit )
• Аудио » Русский-|Любительский, В.Замез (без цензуры)|(AC-3 / 2 ch / 192 kbps / 48,0 КГц / 16 bit )
• Аудио » Русский-|Любительский, В.Замез|(AC-3 / 2 ch / 192 kbps / 48,0 КГц / 16 bit )
• Аудио » Английский (DTS / 6 ch / 1510 kbps / 48,0 КГц / 24 bit)



Бюджет: $58 000 000
Сборы в США: $340 941 383
Сборы в мире: + $389 708 747 = $754 452 848
Сборы в России: $24 267 261
Зрители: Россия 6.72 млн
Премьера (мир): 21 января 2016
Премьера (РФ): 11 февраля 2016
Рейтинг MPAA: Лицам до 17 лет обязательно присутствие взрослого
***Сохранены оригинальные главы как на Blu-ray.
***Видеоряд от HDMaNiAcS.
***В раздаче две дорожки В.Замеза: цензурная и ненормативная.
***Перевод Е.Гаевского доступен благодаря: RW, napaHouk, boldino, kidman644, sivservik, scobra, ZeDOK, Старый, Pr0peLLer, RafL, bulovs, Loki1982, Антиквар, sancrew, ACID. Работа со звуком: Переводман. Внимание! В переводе присутствует ненормативная лексика!
Общее
Уникальный идентификатор : 202412851019206593991327058068927870909 (0x98474C0E22500AE39A080E89E61AF7BD)
Полное имя : Дэдпул (2016. Deadpool) 1080p.mkv
Формат : Matroska
Версия формата : Version 4 / Version 2
Размер файла : 12,1 Гбайт
Продолжительность : 1 ч. 48 м.
Общий поток : 16,0 Мбит/сек
Дата кодирования : UTC 2016-04-27 12:17:26
Программа кодирования : mkvmerge v9.0.1 ('Obstacles') 64bit
Библиотека кодирования : libebml v1.3.3 + libmatroska v1.4.4
Attachements : cover.jpeg

Видео
Идентификатор : 1
Формат : AVC
Формат/Информация : Advanced Video Codec
Профиль формата : High@L4.1
Параметр CABAC формата : Да
Параметр ReFrames формата : 5 кадров
Идентификатор кодека : V_MPEG4/ISO/AVC
Продолжительность : 1 ч. 48 м.
Битрейт : 13,2 Мбит/сек
Ширина : 1920 пикселей
Высота : 806 пикселей
Соотношение сторон : 2,40:1
Режим частоты кадров : Постоянный
Частота кадров : 23,976 кадра/сек
Цветовое пространство : YUV
Субдискретизация насыщенности : 4:2:0
Битовая глубина : 8 бит
Тип развёртки : Прогрессивная
Бит/(Пиксели*Кадры) : 0.355
Размер потока : 9,97 Гбайт (83%)
Заголовок : Deadpool.2016.1080p.BluRay.DTS.x264-HDMaNiAcS
Библиотека кодирования : x264 core 146 r2538 121396c
Настройки программы : cabac=1 / ref=5 / deblock=1:-3:-3 / analyse=0x3:0x133 / me=tesa / subme=11 / psy=1 / psy_rd=1.06:0.00 / mixed_ref=1 / me_range=32 / chroma_me=1 / trellis=2 / 8x8dct=1 / cqm=0 / deadzone=21,11 / fast_pskip=0 / chroma_qp_offset=-2 / threads=48 / lookahead_threads=6 / sliced_threads=0 / nr=0 / decimate=0 / interlaced=0 / bluray_compat=0 / constrained_intra=0 / bframes=12 / b_pyramid=2 / b_adapt=2 / b_bias=0 / direct=3 / weightb=1 / open_gop=0 / weightp=2 / keyint=240 / keyint_min=23 / scenecut=40 / intra_refresh=0 / rc_lookahead=150 / rc=crf / mbtree=0 / crf=17.3 / qcomp=0.60 / qpmin=0 / qpmax=69 / qpstep=4 / vbv_maxrate=62500 / vbv_bufsize=78125 / crf_max=0.0 / nal_hrd=none / filler=0 / ip_ratio=1.40 / pb_ratio=1.30 / aq=1:0.80
Язык : English
Default : Да
Forced : Нет

Аудио #1
Идентификатор : 2
Формат : AC-3
Формат/Информация : Audio Coding 3
Расширение режима : CM (complete main)
Параметр Endianness формата : Big
Идентификатор кодека : A_AC3
Продолжительность : 1 ч. 48 м.
Вид битрейта : Постоянный
Битрейт : 384 Кбит/сек
Каналы : 6 каналов
Расположение каналов : Front: L C R, Side: L R, LFE
Частота : 48,0 КГц
Метод сжатия : С потерями
Размер потока : 297 Мбайт (2%)
Заголовок : Дубляж
Язык : Russian
Default : Нет
Forced : Нет

Аудио #2
Идентификатор : 3
Формат : AC-3
Формат/Информация : Audio Coding 3
Расширение режима : CM (complete main)
Параметр Endianness формата : Big
Идентификатор кодека : A_AC3
Продолжительность : 1 ч. 48 м.
Вид битрейта : Постоянный
Битрейт : 192 Кбит/сек
Каналы : 2 канала
Расположение каналов : Front: L R
Частота : 48,0 КГц
Метод сжатия : С потерями
Размер потока : 149 Мбайт (1%)
Заголовок : Евгений Гаевский
Язык : Russian
Default : Нет
Forced : Нет

Аудио #3
Идентификатор : 4
Формат : AC-3
Формат/Информация : Audio Coding 3
Расширение режима : CM (complete main)
Параметр Endianness формата : Big
Идентификатор кодека : A_AC3
Продолжительность : 1 ч. 48 м.
Вид битрейта : Постоянный
Битрейт : 192 Кбит/сек
Каналы : 2 канала
Расположение каналов : Front: L R
Частота : 48,0 КГц
Метод сжатия : С потерями
Размер потока : 149 Мбайт (1%)
Заголовок : zamez (ненормативный)
Язык : Russian
Default : Нет
Forced : Нет

Аудио #4
Идентификатор : 5
Формат : AC-3
Формат/Информация : Audio Coding 3
Расширение режима : CM (complete main)
Параметр Endianness формата : Big
Идентификатор кодека : A_AC3
Продолжительность : 1 ч. 48 м.
Вид битрейта : Постоянный
Битрейт : 192 Кбит/сек
Каналы : 2 канала
Расположение каналов : Front: L R
Частота : 48,0 КГц
Метод сжатия : С потерями
Размер потока : 149 Мбайт (1%)
Заголовок : zamez (цензурный)
Язык : Russian
Default : Нет
Forced : Нет

Аудио #5
Идентификатор : 6
Формат : DTS
Формат/Информация : Digital Theater Systems
Профиль формата : ES
Режим : 16
Параметр Endianness формата : Big
Идентификатор кодека : A_DTS
Продолжительность : 1 ч. 48 м.
Вид битрейта : Постоянный
Битрейт : 1509 Кбит/сек
Каналы : 6 каналов
Расположение каналов : Front: L C R, Side: L R, LFE
Частота : 48,0 КГц
Битовая глубина : 24 бит
Метод сжатия : С потерями
Размер потока : 1,14 Гбайт (9%)
Язык : English
Default : Нет
Forced : Нет

Текст #1
Идентификатор : 7
Формат : UTF-8
Идентификатор кодека : S_TEXT/UTF8
Идентификатор кодека/Информация : UTF-8 Plain Text
Заголовок : forced
Язык : Russian
Default : Да
Forced : Нет

Текст #2
Идентификатор : 8
Формат : UTF-8
Идентификатор кодека : S_TEXT/UTF8
Идентификатор кодека/Информация : UTF-8 Plain Text
Язык : Russian
Default : Нет
Forced : Нет

Текст #3
Идентификатор : 9
Формат : UTF-8
Идентификатор кодека : S_TEXT/UTF8
Идентификатор кодека/Информация : UTF-8 Plain Text
Язык : English
Default : Нет
Forced : Нет

Текст #4
Идентификатор : 10
Формат : UTF-8
Идентификатор кодека : S_TEXT/UTF8
Идентификатор кодека/Информация : UTF-8 Plain Text
Заголовок : SDH
Язык : English
Default : Нет
Forced : Нет

Текст #5
Идентификатор : 11
Формат : UTF-8
Идентификатор кодека : S_TEXT/UTF8
Идентификатор кодека/Информация : UTF-8 Plain Text
Заголовок : forced
Язык : Ukrainian
Default : Нет
Forced : Нет

Текст #6
Идентификатор : 12
Формат : UTF-8
Идентификатор кодека : S_TEXT/UTF8
Идентификатор кодека/Информация : UTF-8 Plain Text
Язык : Ukrainian
Default : Нет
Forced : Нет

Меню
00:00:00.000 : en:Chapter 1
00:03:04.726 : en:Chapter 2
00:05:53.019 : en:Chapter 3
00:09:30.820 : en:Chapter 4
00:13:19.090 : en:Chapter 5
00:16:48.716 : en:Chapter 6
00:20:12.545 : en:Chapter 7
00:22:06.408 : en:Chapter 8
00:27:09.628 : en:Chapter 9
00:31:58.959 : en:Chapter 10
00:36:51.709 : en:Chapter 11
00:41:06.172 : en:Chapter 12
00:44:45.766 : en:Chapter 13
00:46:56.605 : en:Chapter 14
00:50:10.966 : en:Chapter 15
00:53:18.028 : en:Chapter 16
00:55:33.038 : en:Chapter 17
00:59:07.753 : en:Chapter 18
01:03:05.240 : en:Chapter 19
01:07:06.439 : en:Chapter 20
01:09:15.568 : en:Chapter 21
01:12:29.720 : en:Chapter 22
01:16:46.393 : en:Chapter 23
01:20:43.714 : en:Chapter 24
01:25:53.398 : en:Chapter 25
01:31:03.792 : en:Chapter 26
01:34:46.973 : en:Chapter 27
01:39:52.737 : en:Chapter 28
[/code]

скриншот   скриншот   скриншот   скриншот   скриншот   скриншот  
pb.wtf



Скачать Дэдпул через торрент http://pic1.kartinco.top/images/10/3n4qv.jpg Скачать фильм Дэдпул через торрент бесплантно в хорошем качестве В ролях »Райан Рейнольдс / Ryan Reynolds (Wade / Deadpool), Морена Баккарин / Morena Baccarin (Vanessa), Эд Скрейн / Ed Skrein (Ajax), ... 9.6 10 27
Info! Золотая раздача, скачанное не засчитывается.
Торрент: Зарегистрирован [2016-04-27 23:37] · скачан: 1 050 раз
Статус: √ проверено
Размер: 12.08 GB
Как cкачать? Как скачать Дэдпул через торрент | qTorrent

% Раздел Тема Автор DL S | L
Ultra HD (UHD: 2K, 4K, 8K) — видео сверхвысокой чёткости [ 60.72 GB ] Дэдпул 2 / Deadpool 2 [2018 UHD BDRemux 2160p] [Расширенная версия] DUB [] + 2xAVO sheker187 Скачать
1 | 0
Фильмы с авторской озвучкой [ 2.18 GB ] Дэдпул 2 / Deadpool 2 [2018 BDRip] AVO [Гаевский] Twi7ter Скачать
1 | 0
Фильмы [HD 720p, 1080p] (Хороший звук DUB, MVO) [ 9.74 GB ] Дэдпул 2 / Deadpool 2 [2018 BDRip 720p] [Расширенная версия] 2xAVO+DUB [] bober100 Скачать
2 | 0
Фильмы [HD 720p, 1080p] (Хороший звук DUB, MVO) [ 20.62 GB ] Дэдпул 2 / Deadpool 2 [2018 BDRip 1080p] [Расширенная версия] 2xAVO+DUB [] bober100 Скачать
1 | 0
Фильмы (Blu-ray, BD-Remux, HDDVD) [ 38.01 GB ] Дэдпул 2 / Deadpool 2 [2018 BD Remux 1080p] [Расширенная версия] AVO [Е.Гаевский] +DUB [] bober100 Скачать
1 | 0
Ultra HD (UHD: 2K, 4K, 8K) — видео сверхвысокой чёткости [ 53.45 GB ] Дэдпул 2 / Deadpool 2 [2018 UHD BDRemux 2160p] [Расширенная версия] DUB + AVO [Е.Гаевский] sheker187 Скачать
2 | 0
Фильмы с авторской озвучкой [ 1.46 GB ] Дэдпул 2 / Deadpool 2 [2018 BDRip] AVO [Гаевский] Twi7ter Скачать
1 | 0


Последний раз редактировалось: $-DRON-$ (2016-04-29 13:41), всего редактировалось 2 раз(а)

28-11-2019 20:33  

Отключить всю рекламу на сайте

28-04-2016 00:51 Дэдпул Скачать торрент  

а чем переводы отличаются?pb.wtf



30-04-2016 16:47 Дэдпул Скачать торрент  

а блю-рэй скоро ждать или лет 10?? pb.wtf



    Дорогой пользователь! Огромная просьба, поблагодарите релизера, оцените раздачу и оставьте свои комментарий, если Вы скачали Дэдпул через торрент бесплатно! Внесите свою лепту в развитие PiratBit!
    Комментировать посты могут только пользователи прошедшие не сложную регистрацию
    Показать сообщения:    

    Дэдпул через торрент
    Скачать бесплатно Дэдпул
    Дэдпул скачать торрент
    Дэдпул смотреть онлайн
    Cкачать фильм Дэдпул бесплатно
    Дэдпул скачать торрент в хорошем качестве
    Дэдпул смотреть онлайн бесплатно в хорошем качестве


    Вы не можете начинать темы
    Вы не можете отвечать на сообщения
    Вы не можете редактировать свои сообщения
    Вы не можете удалять свои сообщения
    Вы не можете голосовать в опросах
    Вы не можете прикреплять файлы к сообщениям
    Вы можете скачивать файлы