Ссылка на приватное зеркало нашего сайта всего за 1$. Внимание количество ограничено!!!

2 сезон

iTunes

1 сезон

1

2 сезон

2 сезон

iTunes

1 сезон

RePack

30

Новинка

ВАЖНО

ИГРА 18+

pack

RePack

MK11
pack

Забери бонус

RePack

jed

!!Акция!!

Alien_Rage

RePack

fifa19

RePack

Assassins Creed: Odyssey

RePack

NEED FOR SPEED™ PAYBACK

4 сезон

9 сезон

Бесстыжие 9 сезон

Все сериалы

все сериалы на PB.wtf

RePack

FAR CRY 5
  

Поворот / Агент / TURN / Сезон: 3 / Серии 1-4 из 10 (Ник Копус / Nick Copus / Руперт Уайатт / Rupert Wyatt) [2016, США, драма, военный, WEB-DLRip-AVC] MVO [BaibaKo] pb.wtf

Поворот через торрент pb.wtf

Размер: 3.45 GB | Добавлен: 4 года 6 мес. назад | Торрент скачан:2 раза
Скачать  

28-04-2016 00:58 Поворот Скачать торрент  


Поворот / Агент / TURN

«Нерассказанная история первой агентурной сети Америки»


  • Год выпуска: 2016
  • Страна: США
  • Жанр: драма, военный
  • Продолжительность: 00:45:27 (Серия)
  • Перевод: Профессиональный многоголосый закадровый [BaibaKo]
  • Примечание: Рекламный ролик вырезан!!
  • Режиссер: Ник Копус / Nick Copus / Руперт Уайатт / Rupert Wyatt
  • В ролях:

    Джейми Белл (Abraham Woodhull), Тимоти Брукс (Continental), Сет Нумрик (Ben Talmadge), Кевин МакНэлли (Judge Richard Woodhull), Дж.Е. Мацер (Continental Militia), Christopher Stephens (Continental Officer), Дэниэл Хеншэлл (Caleb Brewster), Хезер Линд (Anna Strong), Миган Уорнер (Mary Woodhull), Берн Горман (Major Hewlett), Энгус МакФадьен (Robert Rogers), Сэмюэл Рукин (Lt. John Simcoe)

  • Описание:
    События сериала «Поворот» происходят в 1778 году. Нью-йоркский фермер, который живет на захваченном британцами острове Лонг-Айленд, решает помочь своим соотечественникам в борьбе за независимость. Герой сериала собирает вокруг себя группу друзей детства, с помощью которых организовывает шпионскую сеть, призванную предоставлять информацию Джорджу Вашингтону. Эта удивительная успешная шпионская сеть в конце концов оказала огромное влияние на ход американской войны за независимость.
  • Рейтинг:



  • Качество: WEB-DLRip-AVC
  • Формат: :MPEG-4
  • Видео кодек: AVC
  • Аудио кодек: AC3
  • Видео: 2042 Кбит/сек, 1024*576 (16:9), в 23,976 кадра/сек, AVC
  • Аудио №1: русский 384 Кбит/сек, 48,0 КГц, 16 бит, 6 каналов, AC-3 |[BaibaKo]|
  • Аудио №2: английский 384 Кбит/сек, 48,0 КГц, 16 бит, 6 каналов, AC-3
  • Релиз от: GEKADOL

    Код:

    Внимание! Раздача ведётся путём добавления новых серий; при каждом добавлении создаётся новый торрент. Чтобы начать докачку новой серии, пользователям необходимо сделать следующее:
    (1) остановить скачивание,
    (2) удалить старый торрент у себя из клиента (старые серии удалять не надо),
    (3) скачать новый торрент и запустить его у себя в клиенте вместо старого, при этом указать клиенту путь в старую папку куда и должно происходить скачивание новых серий.
    Ваш клиент при этом должен произвести хеширование (проверку) старой папки (если не производит сам - помогите ему сделать это), и будет докачивать только те серии которых у вас ещё нет. Старые серии при этом не удаляются, а продолжают раздаваться!
    Eсли вы уже удалили старые серии, то предотвратить повторную закачку старых серий можно, отжав галочку в соответствующих местах при запуске нового торрента. По возможности, желательно не удалять старые серии как можно дольше чтобы релизёр не столько продолжал раздавать старые серии, а смог сконцентрироваться на новых.


    Код:

    Общее
    Полное имя                               : H:\Поворот.Turn (Сезон 3)\Turn.s03e01.WEB-DLRip-AVC.Rus.Eng.BaibaKo.tv.mp4
    Формат                                   : MPEG-4
    Профиль формата                          : Base Media
    Идентификатор кодека                     : isom
    Размер файла                             : 891 Мбайт
    Продолжительность                        : 44 м.
    Общий поток                              : 2815 Кбит/сек
    Тип содержимого                          : Short Film
    Программа кодирования                    : XviD4PSP 7.0.256
    HDVideo                                  : Yes
    encoding_info                            : MATROSKA / WEBM > MP4 / H264 > X264 CBR 2200kbps HQ / AC3 > AC3 CBR 384kbps Custom / AC3 > AC3 CBR 384kbps Custom

    Видео
    Идентификатор                            : 1
    Формат                                   : AVC
    Формат/Информация                        : Advanced Video Codec
    Профиль формата                          : High@L3.2
    Параметр CABAC формата                   : Да
    Параметр ReFrames формата                : 4 кадра
    Идентификатор кодека                     : avc1
    Идентификатор кодека/Информация          : Advanced Video Coding
    Продолжительность                        : 44 м.
    Битрейт                                  : 2042 Кбит/сек
    Номинальный битрейт                      : 2200 Кбит/сек
    Ширина                                   : 1024 пикселя
    Высота                                   : 576 пикселей
    Соотношение сторон                       : 16:9
    Режим частоты кадров                     : Переменный
    Частота кадров                           : 23,976 кадра/сек
    Минимальная частота кадров               : 15,984 кадров/сек
    Максимальная частота кадров              : 47,952 кадров/сек
    Цветовое пространство                    : YUV
    Субдискретизация насыщенности            : 4:2:0
    Битовая глубина                          : 8 бит
    Тип развёртки                            : Прогрессивная
    Бит/(Пиксели*Кадры)                      : 0.144
    Размер потока                            : 647 Мбайт (73%)
    Библиотека кодирования                   : x264 core 148 r2665M a01e339
    Настройки программы                      : cabac=1 / ref=3 / deblock=1:-1:-1 / analyse=0x3:0x133 / me=hex / subme=7 / psy=1 / psy_rd=1.00:0.20 / mixed_ref=1 / me_range=16 / chroma_me=1 / trellis=1 / 8x8dct=1 / cqm=0 / deadzone=21,11 / fast_pskip=1 / chroma_qp_offset=-3 / threads=5 / lookahead_threads=1 / sliced_threads=0 / nr=0 / decimate=1 / interlaced=0 / bluray_compat=0 / constrained_intra=0 / bframes=3 / b_pyramid=2 / b_adapt=2 / b_bias=0 / direct=3 / weightb=1 / open_gop=0 / weightp=2 / keyint=230 / keyint_min=23 / scenecut=40 / intra_refresh=0 / rc_lookahead=40 / rc=cbr / mbtree=1 / bitrate=2200 / ratetol=1.0 / qcomp=0.60 / qpmin=0 / qpmax=69 / qpstep=4 / vbv_maxrate=2200 / vbv_bufsize=2200 / nal_hrd=none / filler=0 / ip_ratio=1.40 / aq=1:1.00

    Аудио #1
    Идентификатор                            : 2
    Формат                                   : AC-3
    Формат/Информация                        : Audio Coding 3
    Расширение режима                        : CM (complete main)
    Параметр Endianness формата              : Big
    Идентификатор кодека                     : ac-3
    Продолжительность                        : 44 м.
    Вид битрейта                             : Постоянный
    Битрейт                                  : 384 Кбит/сек
    Каналы                                   : 6 каналов
    Расположение каналов                     : Front: L C R, Side: L R, LFE
    Частота                                  : 48,0 КГц
    Битовая глубина                          : 16 бит
    Метод сжатия                             : С потерями
    Размер потока                            : 122 Мбайт (14%)
    Язык                                     : Russian

    Аудио #2
    Идентификатор                            : 3
    Формат                                   : AC-3
    Формат/Информация                        : Audio Coding 3
    Расширение режима                        : CM (complete main)
    Параметр Endianness формата              : Big
    Идентификатор кодека                     : ac-3
    Продолжительность                        : 44 м.
    Вид битрейта                             : Постоянный
    Битрейт                                  : 384 Кбит/сек
    Каналы                                   : 6 каналов
    Расположение каналов                     : Front: L C R, Side: L R, LFE
    Частота                                  : 48,0 КГц
    Битовая глубина                          : 16 бит
    Метод сжатия                             : С потерями
    Размер потока                            : 122 Мбайт (14%)
    Язык                                     : English




    Скриншоты:
    скриншот   скриншот   скриншот   скриншот   скриншот   скриншот   скриншот  
    скриншот  

    Раздача ведётся путём добавления новых серий. Добавлена 4 серия (20.05.2016).Просьба перекачать торрент файл.

    pb.wtf



  • Скачать Поворот через торрент http://pic1.kartinco.top/images/10/toe9n.jpg Скачать фильм Поворот через торрент бесплантно в хорошем качестве Описание: События сериала «Поворот» происходят в 1778 году. Нью-йоркский фермер, который живет на захваченном британцами острове ... 10 10 1
    Info! Серебряная раздача, засчитывается только 50% скачанного.
    Торрент: Зарегистрирован [2016-05-20 01:28] · скачан: 2 раз
    Статус: √ проверено
    Размер: 3.45 GB
    Как cкачать? Как скачать Поворот через торрент | qTorrent



    Последний раз редактировалось: GEKADOL (2016-05-20 01:27), всего редактировалось 4 раз(а)

    28-11-2019 20:33  

    Отключить всю рекламу на сайте

    28-04-2016 04:59 Поворот Скачать торрент  

    Наконец-то третий сезон.pb.wtf



    28-04-2016 06:26 Поворот Скачать торрент  

    Как сериал стоит начинать смотреть с начало?pb.wtf



      Дорогой пользователь! Огромная просьба, поблагодарите релизера, оцените раздачу и оставьте свои комментарий, если Вы скачали Поворот через торрент бесплатно! Внесите свою лепту в развитие PiratBit!
      Комментировать посты могут только пользователи прошедшие не сложную регистрацию
      Показать сообщения:    

      Поворот через торрент
      Скачать бесплатно Поворот
      Поворот скачать торрент
      Поворот смотреть онлайн
      Cкачать фильм Поворот бесплатно
      Поворот скачать торрент в хорошем качестве
      Поворот смотреть онлайн бесплатно в хорошем качестве


      Вы не можете начинать темы
      Вы не можете отвечать на сообщения
      Вы не можете редактировать свои сообщения
      Вы не можете удалять свои сообщения
      Вы не можете голосовать в опросах
      Вы не можете прикреплять файлы к сообщениям
      Вы можете скачивать файлы