Ссылка на приватное зеркало нашего сайта всего за 1$. Внимание количество ограничено!!!

2 сезон

iTunes

1 сезон

1

iTunes

iTunes

iTunes

1 сезон

RePack

30

ИГРА 18+

pack

ВАЖНО

!!Акция!!

Alien_RageХит недели

RePack

MK11
pack

Забери бонус

RePack

jed

!!Акция!!

Alien_Rage

RePack

fifa19

RePack

Assassins Creed: Odyssey

RePack

NEED FOR SPEED™ PAYBACK

4 сезон

9 сезон

Бесстыжие 9 сезон

Все сериалы

все сериалы на PB.wtf

RePack

FAR CRY 5
  

Пандемия / Pandemic (Джон Суитц ) [2016, фантастика, боевик, триллер, BDRip 720p] MVO pb.wtf

Пандемия через торрент pb.wtf

Размер: 4.49 GB | Добавлен: 4 года 5 мес. назад | Торрент скачан:269 раз
Скачать  

28-04-2016 07:22 Пандемия Скачать торрент  

Пандемия / Pandemic

Год выпуска: 2016
Страна: США
Жанр: фантастика, боевик, триллер
Продолжительность: 01:32:03
Примечание: Присутствует реклама!
Перевод: Любительский многоголосый [ViruseProject]
Режиссер: Джон Суитц
В ролях: Рэйчел Николс (Lauren), Элфи Оуэн-Аллен (Wheeler), Мисси Пайл (Denise), Мекхай Файфер (Gunner), Пол Гилфойл (Doctor Greer), Даниэль Роуз Расселл (Megan), Пэт Хили (Doctor Ward), Роберт Льюис Стефенсон (David), Аманда Бэйкер (Ella), Сара Томко (Alice), Доминик Богарт (Sergeant O'Brien), Александр Уорд (Level 5 Infected)
Описание:
На планете Земля зверствует страшный вирус, превращающий людей в безмозглых и агрессивных тварей. Доктор Лорен в составе небольшой группы направлена в центр города с заданием найти и спасти незаражённых выживших.
Рейтинг:

MPAA: R - Лицам до 17 лет обязательно присутствие взрослого
Качество: BDRip
Формат: MKV
Видео: AVC, 1280x544 (2.35:1), 5285 kbps, 23,976 fps, 0,317 bpp
Аудио №1: русский / AC3 / 2.0 / 48 kHz / 192 kbps / 16 bit ||
Аудио №2: английский / DTS / 5.1 / 48 kHz / 1510 kbps / 24 bit






Код:

General
Общее
Уникальный идентификатор                 : 175210978442242385854732624916285087949 (0x83D06830F00D6226BB99153648FDE0CD)
Полное имя                               : D:\С инета\Пандемия - Pandemic (2016)_BDRip.720p.mkv
Формат                                   : Matroska
Версия формата                           : Version 4 / Version 2
Размер файла                             : 4,49 Гбайт
Продолжительность                        : 1 ч. 32 м.
Общий поток                              : 6982 Кбит/сек
Дата кодирования                         : UTC 2016-04-26 18:06:57
Программа кодирования                    : mkvmerge v8.3.0 ('Over the Horizon') 64bit
Библиотека кодирования                   : libebml v1.3.1 + libmatroska v1.4.2

Видео
Идентификатор                            : 1
Формат                                   : AVC
Формат/Информация                        : Advanced Video Codec
Профиль формата                          : High@L4.1
Параметр CABAC формата                   : Да
Параметр ReFrames формата                : 5 кадров
Идентификатор кодека                     : V_MPEG4/ISO/AVC
Продолжительность                        : 1 ч. 32 м.
Битрейт                                  : 5285 Кбит/сек
Ширина                                   : 1280 пикселей
Высота                                   : 544 пикселя
Соотношение сторон                       : 2,35:1
Режим частоты кадров                     : Постоянный
Частота кадров                           : 23,976 (24000/1001) кадра/сек
Цветовое пространство                    : YUV
Субдискретизация насыщенности            : 4:2:0
Битовая глубина                          : 8 бит
Тип развёртки                            : Прогрессивная
Бит/(Пиксели*Кадры)                      : 0.317
Размер потока                            : 3,39 Гбайт (76%)
Библиотека кодирования                   : x264 core 148 r2692 64f4e24
Настройки программы                      : cabac=1 / ref=5 / deblock=1:-1:-1 / analyse=0x3:0x133 / me=umh / subme=8 / psy=1 / psy_rd=1.00:0.15 / mixed_ref=1 / me_range=16 / chroma_me=1 / trellis=1 / 8x8dct=1 / cqm=0 / deadzone=21,11 / fast_pskip=0 / chroma_qp_offset=-4 / threads=6 / lookahead_threads=1 / sliced_threads=0 / nr=0 / decimate=1 / interlaced=0 / bluray_compat=0 / constrained_intra=0 / bframes=3 / b_pyramid=2 / b_adapt=2 / b_bias=0 / direct=3 / weightb=1 / open_gop=0 / weightp=2 / keyint=230 / keyint_min=22 / scenecut=40 / intra_refresh=0 / rc_lookahead=50 / rc=2pass / mbtree=1 / bitrate=5285 / ratetol=1.0 / qcomp=0.60 / qpmin=10 / qpmax=69 / qpstep=4 / cplxblur=20.0 / qblur=0.5 / ip_ratio=1.40 / aq=1:1.00
Язык                                     : English
Default                                  : Да
Forced                                   : Нет

Аудио #1
Идентификатор                            : 2
Формат                                   : AC-3
Формат/Информация                        : Audio Coding 3
Расширение режима                        : CM (complete main)
Параметр Endianness формата              : Big
Идентификатор кодека                     : A_AC3
Продолжительность                        : 1 ч. 32 м.
Вид битрейта                             : Постоянный
Битрейт                                  : 192 Кбит/сек
Каналы                                   : 2 канала
Расположение каналов                     : Front: L R
Частота                                  : 48,0 КГц
Частота кадров                           : 31,250 кадров/сек (1536 spf)
Метод сжатия                             : С потерями
Задержка видео                           : 3 мс.
Размер потока                            : 126 Мбайт (3%)
Язык                                     : Russian
Default                                  : Да
Forced                                   : Нет

Аудио #2
Идентификатор                            : 3
Формат                                   : DTS
Формат/Информация                        : Digital Theater Systems
Режим                                    : 16
Параметр Endianness формата              : Big
Идентификатор кодека                     : A_DTS
Продолжительность                        : 1 ч. 32 м.
Вид битрейта                             : Постоянный
Битрейт                                  : 1509 Кбит/сек
Каналы                                   : 6 каналов
Расположение каналов                     : Front: L C R, Side: L R, LFE
Частота                                  : 48,0 КГц
Частота кадров                           : 93,750 кадра/сек (512 spf)
Битовая глубина                          : 24 бит
Метод сжатия                             : С потерями
Размер потока                            : 993 Мбайт (22%)
Язык                                     : English
Default                                  : Нет
Forced                                   : Нет

Меню
00:00:00.000                             : en:00:00:00.000
00:09:47.712                             : en:00:09:47.712
00:17:12.782                             : en:00:17:12.782
00:25:10.384                             : en:00:25:10.384
00:33:38.808                             : en:00:33:38.808
00:39:56.060                             : en:00:39:56.060
00:49:01.939                             : en:00:49:01.939
00:57:03.962                             : en:00:57:03.962
01:04:01.796                             : en:01:04:01.796
01:12:30.179                             : en:01:12:30.179
01:20:08.137                             : en:01:20:08.137
01:27:56.855                             : en:01:27:56.855

pb.wtf



Скачать Пандемия через торрент http://i80.fastpic.ru/big/2016/0428/78/f0ba7544ef700d5d9ca6eb2b08985778.jpg Скачать фильм Пандемия через торрент бесплантно в хорошем качестве Описание: На планете Земля зверствует страшный вирус, превращающий людей в безмозглых и агрессивных тварей. Доктор Лорен в составе ... 8.8 10 16
Info! Золотая раздача, скачанное не засчитывается.
Торрент: Зарегистрирован [2016-04-28 07:22] · скачан: 269 раз
Статус: T временная
Размер: 4.49 GB
Как cкачать? Как скачать Пандемия через торрент | qTorrent

% Раздел Тема Автор DL S | L
T Фильмы 2016 [DVDrip, WEB-DLRip, HDrip] (DUB, MVO) [ 1.51 GB ] Пандемия / Pandemic [2016 HDRip-AVC] [MVO] [IVI] от wolf1245 & MediaBit Lithuania Скачать
2 | 0
Документальные фильмы и телепередачи [ 9.26 GB ] Пандемия: Как предотвратить распространение / Pandemic: How to Prevent an Outbreak / Сезон: 1 / Серии: 1-6 из 6 [2020 документальный медицина WEBRip 720p] MVO [HDRezka Studio] bober100 Скачать
1 | 0
T Фильмы 2016 [DVDrip, WEB-DLRip, HDrip] (DUB, MVO) [ 1.37 GB ] Пандемия / Pandemic [2016 HDRip] MVO $-DRON-$ Скачать
1 | 0
T Фильмы (WEB-DL 720p, 1080p) [ 2.68 GB ] Пандемия / Pandemic [2016 WEB-DL 720p] MVO [ViruseProject] -Lexx- Скачать
1 | 0


Последний раз редактировалось: DINO-UFO (2016-04-29 15:00), всего редактировалось 2 раз(а)

28-11-2019 20:33  

Отключить всю рекламу на сайте

    Дорогой пользователь! Огромная просьба, поблагодарите релизера, оцените раздачу и оставьте свои комментарий, если Вы скачали Пандемия через торрент бесплатно! Внесите свою лепту в развитие PiratBit!
    Комментировать посты могут только пользователи прошедшие не сложную регистрацию
    Показать сообщения:    

    Пандемия через торрент
    Скачать бесплатно Пандемия
    Пандемия скачать торрент
    Пандемия смотреть онлайн
    Cкачать фильм Пандемия бесплатно
    Пандемия скачать торрент в хорошем качестве
    Пандемия смотреть онлайн бесплатно в хорошем качестве


    Вы не можете начинать темы
    Вы не можете отвечать на сообщения
    Вы не можете редактировать свои сообщения
    Вы не можете удалять свои сообщения
    Вы не можете голосовать в опросах
    Вы не можете прикреплять файлы к сообщениям
    Вы можете скачивать файлы