Всегда рабочее зеркало без VPN и Proxy просто перед .vidak.icu напиши любое слово или цифру, Пример http://o1fa.vidak.icu

MVO

2 сезон

2 сезон

1

1 сезон

iTunes

2 сезон

13

1 сезон

Распродажа

pack

Рекомендуем

Пиратка

30

ВАЖНО

RePack

MK11

RePack

jed

RePack

fifa19

RePack

RDR2

RePack

NEED FOR SPEED™ PAYBACK

Кинопоиск HD

6 сезон

 Острые козырьки 6 сезон

Все сериалы

все сериалы на PB.wtf

RePack

FAR CRY 5

Anonymous, нам критически не хватает 5601 руб. на оплату серверов и переферии за Апрель, помоги нам пожалуйста, вся надежда только на тебя. В благодарность мы отключим тебе всю рекламу на сайте!

×
  
Magnet ссылка

Пандорум / Pandorum (Кристиан Альварт / Christian Alvart) [2009, ужасы, фантастика, боевик, BDRip 720p, Дубляж от potroks] DUB, AVO pb.wtf

Пандорум через торрент pb.wtf

Размер: 7.95 GB | Добавлен: 6 лет назад | Торрент скачан:788 раз
Смотреть онлайн Пандорум | Скачать    Ребята, помогите собрать деньги на оплату серверов!!!

28-04-2016 19:16 Пандорум Скачать торрент  

Пандорум / Pandorum
«Не бойся конца света, бойся того, что будет потом»
Год выпуска: 2009
Страна: Германия, Великобритания / Millennium Films, Constantin Film Produktion GmbH
Жанр: ужасы, фантастика
Продолжительность: 01:48:05
Перевод: Дубляж [R5], Авторский (одноголосый)
Субтитры: русские (Stevvie), русские (Tamerlan), английские (Full), украинские (форс.)
Навигация по главам: есть
Режиссер: Кристиан Альварт / Christian Alvart
В ролях:

Деннис Куэйд (Payton), Бен Фостер (Bower), Кэм Жиганде (Gallo), Антье Трауэ (Nadia), Кунг Ле (Manh), Эдди Роус (Leland), Норман Ридус (Shepard), Андре Хеннике (Hunter Leader), Фридерике Кемптер (Evalon), Нильс-Бруно Шмидт (Insane Officer «Eden»), Азия Луна Мохмад (Childhunter), Дэльфин Шийо (Young Bower's Mother)
Описание: В безднах космоса движется звездолет. Два члена команды, пробудившиеся от гиперсна, оказываются в сложной ситуации: оборудование не работает, вспомнить они ничего не могут. Какова была их миссия? Сколько времени прошло? Где они? Кто они? На все эти вопросы у них нет ответов. К тому же, на корабле обнаруживаются чужие - злобные воины, которые крушат все на своем пути.
У космических путешественников очень мало времени. Теперь для них собственные жизни - не самое главное, ибо только от них двоих, возможно, зависит спасение человечества. Нужно любой ценой восстановить управление кораблем, пока загадочный Пандорум не взял Влacть в свои руки.

Качество: BDRip 720p [Pandorum.2009.Hybrid.Remux.1080p.AVC.DTS-HD.MA.5.1-BiZKiT]
Формат: MKV
Видео кодек: AVC
Аудио кодек: AC3
Видео: 1280x544 (2.35:1), 6562 kbps, 23,976 fps, 0,393 bit/pixel
Аудио №1: AC3 / 5.1 / 48 kHz / 384 kbps / 16 bit | DUB - R5
Аудио №2: AC3 / 5.1 / 48 kHz / 640 kbps / 16 bit | AVO - Д.Есарев
Аудио №3: AC3 / 5.1 / 48 kHz / 640 kbps / 16 bit | AVO - А.Гаврилов
Аудио №4: AC3 / 5.1 / 48 kHz / 640 kbps / 16 bit | AVO - Ю.Живов
Аудио №5: AC3 / 5.1 / 48 kHz / 640 kbps / 16 bit | AVO - Ю.Немахов
Аудио №6: AC3 / 5.1 / 48 kHz / 384 kbps / 16 bit | UKR - MVO - R5
Аудио №7: AC3 / 5.1 / 48 kHz / 640 kbps / 16 bit | ENG
Перевод Д.Есарева доступен благодаря: kidman644, sivservik, potroks, Indian1990, naromdvd, nortonn, Gambler, igrok2012, permenovdg. Работа со звуком - Переводман
За голос Гаврилова благодарим: Fess Necromant, Fess Necromant2, audiolubitel, darkman70, TvarYuri, Джосс, dunhill200, lexal2002, Chistobaev, Andrey_Tula, Pain_70, хамтрамвайный, Vitya0007
На DVD, ~50 секунд украинской дорожки с артефактами, заменены на оригинальную, на них субтитры. За дорожку спасибо HURTOM.
За исходник большое спасибо igrok2012
От себя добавлю. Все дорожки, кроме Есарева и оригинала, пришлось подгонять под данный рип.

Код:

General
Unique ID                   : 235246325772174581095265279751194877354 (0xB0FACB57FA14789BA6C63022E54F1DAA)
Complete name               : Pandorum.2009.5xRus.Ukr.Eng.BDRip.720p.by_potroks.mkv
Format                      : Matroska
Format version              : Version 4 / Version 2
File size                   : 7.95 GiB
Duration                    : 1h 48mn
Overall bit rate            : 10.5 Mbps
Movie name                  : Pandorum (2009)
Encoded date                : UTC 2016-04-28 16:29:10
Writing application         : mkvmerge v5.9.0 ('On The Loose') built on Dec 15 2012 16:39:58
Writing library             : libebml v1.3.0 + libmatroska v1.4.0

Video
ID                          : 1
Format                      : AVC
Format/Info                 : Advanced Video Codec
Format profile              : High@L4.1
Format settings, CABAC      : Yes
Format settings, ReFrames   : 9 frames
Codec ID                    : V_MPEG4/ISO/AVC
Duration                    : 1h 48mn
Bit rate                    : 6 562 Kbps
Width                       : 1 280 pixels
Height                      : 544 pixels
Display aspect ratio        : 2.35:1
Frame rate mode             : Constant
Frame rate                  : 23.976 (24000/1001) fps
Color space                 : YUV
Chroma subsampling          : 4:2:0
Bit depth                   : 8 bits
Scan type                   : Progressive
Bits/(Pixel*Frame)          : 0.393
Stream size                 : 4.80 GiB (60%)
Title                       : potroks
Writing library             : x264 core 148 r2665M a01e339
Encoding settings           : cabac=1 / ref=9 / deblock=1:-3:-3 / analyse=0x3:0x133 / me=umh / subme=11 / psy=1 / psy_rd=0.99:0.05 / mixed_ref=1 / me_range=48 / chroma_me=1 / trellis=2 / 8x8dct=1 / cqm=0 / deadzone=21,11 / fast_pskip=0 / chroma_qp_offset=-3 / threads=9 / lookahead_threads=2 / sliced_threads=0 / nr=0 / decimate=1 / interlaced=0 / bluray_compat=0 / constrained_intra=0 / bframes=11 / b_pyramid=2 / b_adapt=2 / b_bias=0 / direct=3 / weightb=1 / open_gop=0 / weightp=2 / keyint=240 / keyint_min=23 / scenecut=40 / intra_refresh=0 / rc=2pass / mbtree=0 / bitrate=6562 / ratetol=1.0 / qcomp=0.70 / qpmin=0 / qpmax=69 / qpstep=4 / cplxblur=20.0 / qblur=0.5 / ip_ratio=1.35 / pb_ratio=1.25 / aq=1:0.85
Language                    : English
Default                     : Yes
Forced                      : No

Audio #1
ID                          : 2
Format                      : AC-3
Format/Info                 : Audio Coding 3
Mode extension              : CM (complete main)
Format settings, Endianness : Big
Codec ID                    : A_AC3
Duration                    : 1h 48mn
Bit rate mode               : Constant
Bit rate                    : 384 Kbps
Channel(s)                  : 6 channels
Channel positions           : Front: L C R, Side: L R, LFE
Sampling rate               : 48.0 KHz
Frame rate                  : 31.250 fps (1536 spf)
Compression mode            : Lossy
Delay relative to video     : 30ms
Stream size                 : 297 MiB (4%)
Title                       : Dub | DD 5.1 @ 384 kbps - R5
Language                    : Russian
Default                     : Yes
Forced                      : No

Audio #2
ID                          : 3
Format                      : AC-3
Format/Info                 : Audio Coding 3
Mode extension              : CM (complete main)
Format settings, Endianness : Big
Codec ID                    : A_AC3
Duration                    : 1h 48mn
Bit rate mode               : Constant
Bit rate                    : 640 Kbps
Channel(s)                  : 6 channels
Channel positions           : Front: L C R, Side: L R, LFE
Sampling rate               : 48.0 KHz
Frame rate                  : 31.250 fps (1536 spf)
Compression mode            : Lossy
Stream size                 : 495 MiB (6%)
Title                       : AVO | DD 5.1 @ 640 kbps - D.Yesarev
Language                    : Russian
Default                     : No
Forced                      : No

Audio #3
ID                          : 4
Format                      : AC-3
Format/Info                 : Audio Coding 3
Mode extension              : CM (complete main)
Format settings, Endianness : Big
Codec ID                    : A_AC3
Duration                    : 1h 48mn
Bit rate mode               : Constant
Bit rate                    : 640 Kbps
Channel(s)                  : 6 channels
Channel positions           : Front: L C R, Side: L R, LFE
Sampling rate               : 48.0 KHz
Frame rate                  : 31.250 fps (1536 spf)
Compression mode            : Lossy
Stream size                 : 495 MiB (6%)
Title                       : AVO | DD 5.1 @ 640 kbps - A.Gavrilov
Language                    : Russian
Default                     : No
Forced                      : No

Audio #4
ID                          : 5
Format                      : AC-3
Format/Info                 : Audio Coding 3
Mode extension              : CM (complete main)
Format settings, Endianness : Big
Codec ID                    : A_AC3
Duration                    : 1h 48mn
Bit rate mode               : Constant
Bit rate                    : 640 Kbps
Channel(s)                  : 6 channels
Channel positions           : Front: L C R, Side: L R, LFE
Sampling rate               : 48.0 KHz
Frame rate                  : 31.250 fps (1536 spf)
Compression mode            : Lossy
Stream size                 : 495 MiB (6%)
Title                       : AVO | DD 5.1 @ 640 kbps - Yu.Zhivov
Language                    : Russian
Default                     : No
Forced                      : No

Audio #5
ID                          : 6
Format                      : AC-3
Format/Info                 : Audio Coding 3
Mode extension              : CM (complete main)
Format settings, Endianness : Big
Codec ID                    : A_AC3
Duration                    : 1h 48mn
Bit rate mode               : Constant
Bit rate                    : 640 Kbps
Channel(s)                  : 6 channels
Channel positions           : Front: L C R, Side: L R, LFE
Sampling rate               : 48.0 KHz
Frame rate                  : 31.250 fps (1536 spf)
Compression mode            : Lossy
Stream size                 : 495 MiB (6%)
Title                       : AVO | DD 5.1 @ 640 kbps - Yu.Nemahov
Language                    : Russian
Default                     : No
Forced                      : No

Audio #6
ID                          : 7
Format                      : AC-3
Format/Info                 : Audio Coding 3
Mode extension              : CM (complete main)
Format settings, Endianness : Big
Codec ID                    : A_AC3
Duration                    : 1h 48mn
Bit rate mode               : Constant
Bit rate                    : 384 Kbps
Channel(s)                  : 6 channels
Channel positions           : Front: L C R, Side: L R, LFE
Sampling rate               : 48.0 KHz
Frame rate                  : 31.250 fps (1536 spf)
Compression mode            : Lossy
Stream size                 : 297 MiB (4%)
Title                       : MVO | DD 5.1 @ 384 kbps - R5
Language                    : Ukrainian
Default                     : No
Forced                      : No

Audio #7
ID                          : 8
Format                      : AC-3
Format/Info                 : Audio Coding 3
Mode extension              : CM (complete main)
Format settings, Endianness : Big
Codec ID                    : A_AC3
Duration                    : 1h 48mn
Bit rate mode               : Constant
Bit rate                    : 640 Kbps
Channel(s)                  : 6 channels
Channel positions           : Front: L C R, Side: L R, LFE
Sampling rate               : 48.0 KHz
Frame rate                  : 31.250 fps (1536 spf)
Compression mode            : Lossy
Stream size                 : 495 MiB (6%)
Title                       : Original | DD 5.1 @ 640 kbps
Language                    : English
Default                     : No
Forced                      : No

Text #1
ID                          : 9
Format                      : UTF-8
Codec ID                    : S_TEXT/UTF8
Codec ID/Info               : UTF-8 Plain Text
Title                       : Stevvie
Language                    : Russian
Default                     : No
Forced                      : No

Text #2
ID                          : 10
Format                      : UTF-8
Codec ID                    : S_TEXT/UTF8
Codec ID/Info               : UTF-8 Plain Text
Title                       : Tamerlan
Language                    : Russian
Default                     : No
Forced                      : No

Text #3
ID                          : 11
Format                      : UTF-8
Codec ID                    : S_TEXT/UTF8
Codec ID/Info               : UTF-8 Plain Text
Title                       : Full
Language                    : English
Default                     : No
Forced                      : No

Text #4
ID                          : 12
Format                      : UTF-8
Codec ID                    : S_TEXT/UTF8
Codec ID/Info               : UTF-8 Plain Text
Title                       : Forced
Language                    : Ukrainian
Default                     : No
Forced                      : No

Menu
00:00:00.000                : :1. Elysium/Main Title
00:02:56.426                : :2. Hyper-Sleep Disorientation
00:07:46.257                : :3. Payton's Awakening
00:12:18.237                : :4. Claustrophobia
00:18:03.165                : :5. First Contact
00:28:38.634                : :6. Rescuing Shepard
00:36:41.699                : :7. A Little Solidarity
00:44:31.127                : :8. Ecological Development
00:50:09.340                : :9. Tough to Kill
00:57:23.315                : :10. Corporal Gallo
00:59:31.985                : :11. Leland the Cook
01:03:38.898                : :12. Pandorum
01:12:13.079                : :13. Race to the Reactor
01:25:28.081                : :14. Duel to the Death
01:36:48.678                : :15. Brave New World
01:41:26.205                : :16. End Credits

pb.wtf



Скачать Пандорум через торрент http://i79.fastpic.ru/big/2016/0428/c3/8478a91099fd41e7726f414bac70e0c3.png Скачать, смотреть онлайн Пандорум бесплантно в хорошем качестве Описание: В безднах космоса движется звездолет. Два члена команды, пробудившиеся от гиперсна, оказываются в сложной ситуации: оборудование ... 9.4 10 37
Info! Золотая раздача, скачанное не засчитывается.
Торрент: Зарегистрирован [2016-04-28 19:16] · скачан: 788 раз
Статус: √ проверено
Размер: 7.95 GB
Как cкачать? Как скачать Пандорум через торрент | UTorrent

% Раздел Тема Автор DL S | L
Фильмы [HD 720p, 1080p] (Хороший звук DUB, MVO) [ 19.82 GB ] Пандорум / Pandorum [2009 BDRip 1080p by msltel] DUB 3 x AVO / Open Matte msltel Скачать
1 | 0
Фильмы [HD 720p, 1080p] (Хороший звук DUB, MVO) [ 6.49 GB ] Пандорум / Pandorum [2009 BDRip 720p by msltel] DUB 3 x AVO / Open Matte msltel Скачать
1 | 0


Последний раз редактировалось: potroks (2016-04-29 03:06), всего редактировалось 2 раз(а)

28-11-2019 20:33  

Отключить всю рекламу на сайте

28-04-2016 19:59 Пандорум Скачать торрент  

Ахеренный фильмpb.wtf



28-04-2016 20:27 Пандорум Скачать торрент  

shadow912 писал(а):

Ахеренный фильм

Не могу не согласиться,отличнейший кин )pb.wtf



28-04-2016 20:31 Пандорум Скачать торрент  

Мне только не понятно, почему во всех дорожках был рассинхрон. Может из-за того что трансфер гибридный?pb.wtf



28-04-2016 21:37 Пандорум Скачать торрент  

Да. Не часто снимают достойную фантастику. Тут все получилосьpb.wtf



29-04-2016 16:26 Пандорум Скачать торрент  

А самый прикол в том, что и в лицензионной дорожке был рассинхронpb.wtf



29-04-2016 19:44 Пандорум Скачать торрент  

levmik писал(а):

shadow912 писал(а):

Ахеренный фильм

Не могу не согласиться,отличнейший кин )

Поддержу однозначно. Многие уже позабыли, что фантастика это не только спец- эффекты. Но ту есть всё и фантастика и спец- эффекты.pb.wtf



28-02-2017 07:56 Пандорум Скачать торрент  

Kalifch писал(а):

levmik писал(а):

shadow912 писал(а):

Ахеренный фильм

Не могу не согласиться,отличнейший кин )

Поддержу однозначно. Многие уже позабыли, что фантастика это не только спец- эффекты. Но ту есть всё и фантастика и спец- эффекты.

фантастика это не только спец- эффекты. Но ту есть всё и фантастика и спец- эффекты.
какие умные слова,что я даже задумался
помню фильмец зачетный,надо освежить в памяти,качнемс,спасибpb.wtf



24-08-2017 17:55 Пандорум Скачать торрент  

Отличный фильм, из серии тех, что можно пересматривать и не один раз.

Спасибоpb.wtf



22-01-2018 11:16 Пандорум Скачать торрент  

potroks, Спасибо! освежим память, классной фантастикой pb.wtf



    Дорогой пользователь! Огромная просьба, поблагодарите релизера, оцените раздачу и оставьте свои комментарий, если Вы скачали Пандорум через торрент бесплатно!
    Комментировать посты могут только пользователи прошедшие не сложную регистрацию
    Показать сообщения:    

    Пандорум через торрент
    Скачать бесплатно Пандорум
    Пандорум скачать торрент
    Пандорум смотреть онлайн
    Cкачать фильм Пандорум бесплатно
    Пандорум скачать торрент в хорошем качестве
    Пандорум смотреть онлайн бесплатно в хорошем качестве


    Вы не можете начинать темы
    Вы не можете отвечать на сообщения
    Вы не можете редактировать свои сообщения
    Вы не можете удалять свои сообщения
    Вы не можете голосовать в опросах
    Вы не можете прикреплять файлы к сообщениям
    Вы можете скачивать файлы