Ссылка на приватное зеркало всего за 1$. Внимание количество ограничено!!!

OK

1+1

iTunes

мы

OK

1

WEB-DLRip

Джокер

Пифагор

Ведьмак / The Witcher сериал

iTunes

ПШазам

ОК

Оно 2

iTunes

30
pack

Вам бонус

ВАЖНО

!!Акция!!

Alien_RageХит недели

RePack

Resident Evil 21

ИГРА 18+

pack

RePack

jed

RePack

fifa19

RePack

Assassins Creed: Odyssey

RePack

NEED FOR SPEED™ PAYBACK

4 сезон

9 сезон

Бесстыжие 9 сезон

Все сериалы

все сериалы на PB.wtf

RePack

FAR CRY 5
  

Дурак (Юрий Быков ) [2014, драма, HDRip, Оригинал [iTunes] pb.wtf

Дурак через торрент pb.wtf

Размер: 1.45 GB | Добавлен: 3 года 8 мес. назад | Торрент скачан:375 раз
Скачать  

29-04-2016 11:41 Дурак Скачать торрент  

Дурак

Год выпуска: 2014
Страна: Россия
Жанр: драма

Продолжительность: 02:00:52
Перевод: Оригинал [iTunes]
Режиссер: Юрий Быков
В ролях: Артем Быстров (Никитин), Наталья Суркова (Галаганова), Юрий Цурило (Богачев), Борис Невзоров (Федотов), Кирилл Полухин (Матюгин), Александр Коршунов (отец), Ольга Самошина (мать), Дарья Мороз (Маша), Сергей Арцибашев (Тульский), Елена Панова (жена пьяницы), Дмитрий Куличков (пьяница), Илья Исаев (Сафронов)
Описание:
Жизни 800 человек общежития висят буквально на волоске из-за безразличия местных властей. В любую секунду здание может рухнуть. И кто бы мог подумать, что судьбы людей окажутся в руках простого сантехника. Но удастся ли ему что-то изменить и предотвратить катастрофу?
Рейтинг:

Качество: HDRip
Формат: AVI
Видео: XviD, 720x304 (2.35:1), 1328 kbps, 24 fps, 0,253 bpp
Аудио: AC3 / 5.1 / 48 kHz / 384 kbps / 16 bit

Код:

General
Complete name                            : C:\Users\1\Pictures\The.Fool.2014.HDRip.1450MB.AC3.6.ch.MegaPeer.avi
Format                                   : AVI
Format/Info                              : Audio Video Interleave
File size                                : 1.45 GiB
Duration                                 : 2h 0mn
Overall bit rate                         : 1 722 Kbps
Writing application                      : VirtualDubMod 1.5.10.3 | www.virtualdub-fr.org || (build 2550/release)
Writing library                          : VirtualDubMod build 2550/release

Video
ID                                       : 0
Format                                   : MPEG-4 Visual
Format profile                           : Advanced Simple@L5
Format settings, BVOP                    : 1
Format settings, QPel                    : No
Format settings, GMC                     : No warppoints
Format settings, Matrix                  : Custom
Codec ID                                 : XVID
Codec ID/Hint                            : XviD
Duration                                 : 2h 0mn
Bit rate                                 : 1 329 Kbps
Width                                    : 720 pixels
Height                                   : 304 pixels
Display aspect ratio                     : 2.35:1
Frame rate                               : 24.000 fps
Color space                              : YUV
Chroma subsampling                       : 4:2:0
Bit depth                                : 8 bits
Scan type                                : Progressive
Compression mode                         : Lossy
Bits/(Pixel*Frame)                       : 0.253
Stream size                              : 1.12 GiB (77%)
Writing library                          : XviD 73

Audio
ID                                       : 1
Format                                   : AC-3
Format/Info                              : Audio Coding 3
Mode extension                           : CM (complete main)
Codec ID                                 : 2000
Duration                                 : 2h 0mn
Bit rate mode                            : Constant
Bit rate                                 : 384 Kbps
Channel(s)                               : 6 channels
Channel positions                        : Front: L C R, Side: L R, LFE
Sampling rate                            : 48.0 KHz
Bit depth                                : 16 bits
Compression mode                         : Lossy
Stream size                              : 332 MiB (22%)
Alignment                                : Split accross interleaves
Interleave, duration                     : 42 ms (1.00 video frame)
Interleave, preload duration             : 500 ms

скриншот  ссылкаpb.wtf



Скачать Дурак через торрент http://i80.fastpic.ru/big/2016/0429/a8/b313c3e5958a4e80068575a96acbdfa8.png Скачать фильм Дурак через торрент бесплантно в хорошем качестве Описание: Жизни 800 человек общежития висят буквально на волоске из-за безразличия местных властей. В любую секунду здание может рухнуть. И ... 9.5 10 21
Info! Золотая раздача, скачанное не засчитывается.
Торрент: Зарегистрирован [2016-04-29 11:41] · скачан: 375 раз
Статус: √ проверено
Размер: 1.45 GB
Как cкачать? Как скачать Дурак через торрент | qTorrent

% Раздел Тема Автор DL S | L
Наши фильмы (HD, WEB-DL 720p, 1080p) [ 8.66 GB ] Дурак [2014 BDRip 1080p] [] bober100 Скачать
4 | 0
Развлекательные телепередачи и шоу, приколы и юмор [ 12.16 GB ] Деревня Дураков / Сезон: 1-6 / Серии: 1-109 из 109 [1996-2001 TVRip] killermax2013 Скачать
1 | 0
Наши новые фильмы 2014 [ 2.18 GB ] Дурак [2014 Россия BDRip-AVC от sokol_ok] sokol_ok Скачать
2 | 0
Наши новые фильмы 2014 [ 745 MB ] Дурак [2014 Россия BDRip-AVC от sokol_ok] [] sokol_ok Скачать
3 | 0
Наши фильмы (Blu-ray, BD-Remux, HDDVD) [ 22.79 GB ] Дурак [2014 Blu-ray Оригинальный] Бумер Скачать
1 | 0
Наши фильмы (HD, WEB-DL 720p, 1080p) [ 4.15 GB ] Дурак [2014 Россия / ТПО Рок BDRip 720p] potroks Скачать
1 | 0
Наши новые фильмы 2014 [ 1.46 GB ] Дурак [2014 Россия BDRip-AVC от sokol_ok] sokol_ok Скачать
4 | 0

28-11-2019 20:33  

Отключить всю рекламу на сайте

29-04-2016 12:22 Дурак Скачать торрент  

Мне понравился.pb.wtf



29-04-2016 13:10 Дурак Скачать торрент  

Классный фильм,прямо всю суть раскрывает и выворачивает наружуpb.wtf



29-04-2016 17:17 Дурак Скачать торрент  

спасибо!Быков нормальный режиссер,все его фильмы жизненные pb.wtf



30-04-2016 10:54 Дурак Скачать торрент  

Спасибо за раздачу! Живу рядом с этой общагой, интересно было посмотреть. Нормальный фильм.pb.wtf



30-04-2016 13:51 Дурак Скачать торрент  

фильм шлак и старьёpb.wtf



01-05-2016 09:15 Дурак Скачать торрент  

maxhleb писал(а):

фильм шлак и старьё

Необъективно.Фильм отличный.pb.wtf



    Дорогой пользователь! Огромная просьба, поблагодарите релизера, оцените раздачу и оставьте свои комментарий, если Вы скачали Дурак через торрент бесплатно! Внесите свою лепту в развитие PiratBit!
    Комментировать посты могут только пользователи прошедшие не сложную регистрацию
    Показать сообщения:    

    Дурак через торрент
    Скачать бесплатно Дурак
    Дурак скачать торрент
    Дурак смотреть онлайн
    Cкачать фильм Дурак бесплатно
    Дурак скачать торрент в хорошем качестве
    Дурак смотреть онлайн бесплатно в хорошем качестве


    Вы не можете начинать темы
    Вы не можете отвечать на сообщения
    Вы не можете редактировать свои сообщения
    Вы не можете удалять свои сообщения
    Вы не можете голосовать в опросах
    Вы не можете прикреплять файлы к сообщениям
    Вы можете скачивать файлы