Ссылка на приватное зеркало всего за 1$. Внимание количество ограничено!!!

iTunes

iTunes

iTunes

1

iTunes

iTunes

iTunes

WEBRip

iTunes

30
pack

$ от Little Big

ВАЖНО

!!Акция!!

Alien_RageХит недели

RePack

Resident Evil 21

ИГРА 18+

pack

RePack

jed

!!Акция!!

Alien_Rage

RePack

fifa19

RePack

Assassins Creed: Odyssey

RePack

NEED FOR SPEED™ PAYBACK

4 сезон

9 сезон

Бесстыжие 9 сезон

Все сериалы

все сериалы на PB.wtf

RePack

FAR CRY 5
  

Ведьма (Олег Фесенко ) [2006, ужасы, HDRip, Оригинал] pb.wtf

Ведьма через торрент pb.wtf

Размер: 747 MB | Добавлен: 4 года 3 мес. назад | Торрент скачан:55 раз
Скачать  

29-04-2016 15:22 Ведьма Скачать торрент  

Ведьма

Год выпуска: 2006
Страна: Россия
Жанр: ужасы

Продолжительность: 01:35:47
Перевод: Оригинал
Режиссер: Олег Фесенко
В ролях: Валерий Николаев (Айван), Евгения Крюкова (молодая ведьма), Лембит Ульфсак (местный шериф), Арнис Лицитис (Мистер Патч), Юхан Ульфсак (помощник шерифа), Рэйн Толк (2-й помошник шерифа), Ита Эвер (старая ведьма), Тыну Карк (повар), Яан Реккор (священник), Пеэтер Волконски (доктор), Ану Ламп (Кэтлин), Кати Кивитар (офицантка - Марго)
Описание:
Веселый и обаятельный журналист Айван известен своим пристрастием к светским тусовкам и публичным скандалам. А потому предложение босса отправиться исследовать природу загадочных явлений, происходящих в отдаленном городке, воспринимает без особого энтузиазма. Намереваясь побыстрее разделаться с досадным поручением, Айван отправляется в путь.
Однако к вечеру его автомобиль оказывается на заброшенной дороге, которая приводит героя к старому дому, где заблудившемуся путнику удается найти приют. Когда часы пробили полночь, на пороге комнаты появилась очаровательная девушка. Большой любитель женского общества, он пускает в ход все свое обаяние и быстро встречает взаимность. У Айвана и в мыслях нет, что объятия нежной девы обернутся настоящим кошмаром...
Рейтинг:

Качество: HDRip
Формат: AVI
Видео: XviD, 592x320 (1.850), 950 kbps, 29,970 fps, 0,167 bpp
Аудио: MP3 / 2.0 / 48 kHz / 128 kbps /

Код:

General
Complete name                            : C:\Users\1\Pictures\Ved`ma.2006.HDRip.by shkiper.avi
Format                                   : AVI
Format/Info                              : Audio Video Interleave
File size                                : 747 MiB
Duration                                 : 1h 35mn
Overall bit rate                         : 1 090 Kbps
Writing application                      : VirtualDubMod 1.5.10.3 | www.virtualdub-fr.org || (build 2550/release)
Writing library                          : VirtualDubMod build 2550/release

Video
ID                                       : 0
Format                                   : MPEG-4 Visual
Format profile                           : Advanced Simple@L5
Format settings, BVOP                    : 1
Format settings, QPel                    : No
Format settings, GMC                     : No warppoints
Format settings, Matrix                  : Default (H.263)
Codec ID                                 : XVID
Codec ID/Hint                            : XviD
Duration                                 : 1h 35mn
Bit rate                                 : 951 Kbps
Width                                    : 592 pixels
Height                                   : 320 pixels
Display aspect ratio                     : 1.850
Frame rate                               : 29.970 fps
Color space                              : YUV
Chroma subsampling                       : 4:2:0
Bit depth                                : 8 bits
Scan type                                : Progressive
Compression mode                         : Lossy
Bits/(Pixel*Frame)                       : 0.167
Stream size                              : 651 MiB (87%)
Writing library                          : XviD 73

Audio
ID                                       : 1
Format                                   : MPEG Audio
Format version                           : Version 1
Format profile                           : Layer 3
Codec ID                                 : 55
Codec ID/Hint                            : MP3
Duration                                 : 1h 35mn
Bit rate mode                            : Constant
Bit rate                                 : 128 Kbps
Channel(s)                               : 2 channels
Sampling rate                            : 48.0 KHz
Compression mode                         : Lossy
Stream size                              : 87.7 MiB (12%)
Alignment                                : Aligned on interleaves
Interleave, duration                     : 33 ms (1.00 video frame)
Interleave, preload duration             : 504 ms
Writing library                          : LAME3.99r
Encoding settings                        : -m s -V 4 -q 2 -lowpass 17 -b 128

pb.wtf



Скачать Ведьма через торрент http://i80.fastpic.ru/big/2016/0429/a9/6c6b8bbf8f26c47f11c2225792311fa9.png Скачать фильм Ведьма через торрент бесплантно в хорошем качестве Описание: Веселый и обаятельный журналист Айван известен своим пристрастием к светским тусовкам и публичным скандалам. А потому предложение ... 6.5 10 11
Торрент: Зарегистрирован [2016-04-29 15:22] · скачан: 55 раз
Статус: √ проверено
Размер: 747 MB
Как cкачать? Как скачать Ведьма через торрент | qTorrent

% Раздел Тема Автор DL S | L
RPG [ 10.57 GB ] Ведьмак Золотое издание [лицензияENG/RURPG / 3D / 3rd Person] DoTa Скачать
1 | 0
RPG [ 11.62 GB ] Witcher: The Enhanced Edition / Ведьмак. Дополненное издание [лицензияMulti 10Atari] GDZ Скачать
1 | 0
RPG [ 10.87 GB ] Ведьмак 2: Убийцы королей Расширенное издание 2011 [RePack RU RPG / 3D / 3rd Person] by DangeSecond DangeSecond Скачать
1 | 0
RPG [ 8.85 GB ] Ведьмак 2: Убийцы королей Расширенное издание / The Witcher 2: Assassins of Kings Enhanced Edition [v.3.0] 2012 [RePack RU RPG / 3D / 3rd Person] от R.G.BoxPack R.G.BoxPack Скачать
1 | 0
RPG [ 6.15 GB ] Ведьмак 2: Убийцы королей 2011 [RepackRURPG / 3D / 3rd Person] от R.G. Catalyst SD Скачать
1 | 0
RPG [ 8.93 GB ] Ведьмак 2: Убийцы королей Расширенное издание / The Witcher 2: Assassins of Kings Enhanced Edition [3.2.1.0] 2011 [RePack RU RPG / 3D / 3rd Person] White Smoke Скачать
3 | 0
RPG [ 9.61 GB ] Ведьмак 2 Расширенное издание / The Witcher 2 Enhanced Edition 2012 [Repack RU/RU RPG / 3D / 3rd Person] от R.G. Pirat's R.G. Repacker's Скачать
1 | 0

28-11-2019 20:33  

Отключить всю рекламу на сайте

    Дорогой пользователь! Огромная просьба, поблагодарите релизера, оцените раздачу и оставьте свои комментарий, если Вы скачали Ведьма через торрент бесплатно! Внесите свою лепту в развитие PiratBit!
    Комментировать посты могут только пользователи прошедшие не сложную регистрацию
    Показать сообщения:    

    Ведьма через торрент
    Скачать бесплатно Ведьма
    Ведьма скачать торрент
    Ведьма смотреть онлайн
    Cкачать фильм Ведьма бесплатно
    Ведьма скачать торрент в хорошем качестве
    Ведьма смотреть онлайн бесплатно в хорошем качестве


    Вы не можете начинать темы
    Вы не можете отвечать на сообщения
    Вы не можете редактировать свои сообщения
    Вы не можете удалять свои сообщения
    Вы не можете голосовать в опросах
    Вы не можете прикреплять файлы к сообщениям
    Вы можете скачивать файлы