>

5.6

iTunes

6.1

MVO

5.7

MVO

1

7.4

1 сезон

6.8

iTunes

7.2

1 сезон

13

6.7

1 сезон

8.3

RePack

30

Deluxe

pack

9.9

Лицензия

ВАЖНО

ИГРА 18+

pack

7.3

RePack

MK11

7.7

RePack

jed

7.8

RePack

fifa19

8.5

RePack

RDR2

RePack

NEED FOR SPEED™ PAYBACK

4 сезон

9 сезон

Бесстыжие 9 сезон

Все сериалы

все сериалы на PB.wtf

RePack

FAR CRY 5

Anonymous, добрый вечер, мы катастрофически не успеваем собрать деньги на оплату серверов, помогите нам пожалуйста 5,10,15р., для нас важна любая помощь . В качестве благодарности мы отключим Вам всю рекламу на сайте (укажите свой ник в строку Ваше имя)!

×
  
Magnet ссылка

Запасной игрок (Семен Тимошенко) [1954, СССР, комедия, спорт, DVDRip от AVP Studio] pb.wtf

Запасной игрок через торрент pb.wtf

Размер: 1.09 GB | Добавлен: 5 лет 4 мес. назад | Торрент скачан:15 раз
Смотреть онлайн Запасной игрок | Скачать    Ребята, помогите собрать деньги на оплату серверов!!!

30-04-2016 12:10 Запасной игрок Скачать торрент  

Запасной игрок
Страна: СССР
Производство: Ленфильм

Жанр: комедия, спорт
Год выпуска: 1954
Продолжительность: 01:18:07

Перевод: Не требуется
Cубтитры: нет
Оригинальная аудиодорожка: русский

Режиссер: Семен Тимошенко

В ролях:
Георгий Вицин, Всеволод Кузнецов, Елена Тяпкина, Павел Кадочников, Татьяна Конюхова, Валентина Ушакова, Марк Бернес, Константин Адашевский, Владимир Белокуров, Павел Поль, Александр Жуков (II), Эльвира (Эльва) Луценко...
Полный список актёров

Описание:
Заводская команда "Синих Стрел" выходит в финал и отправляется в Сухуми на теплоходе для встречи с "Вымпелом", считающимся фаворитом. Подающий надежды запасной игрок Вася Веснушкин влюблен в гимнастку, опасаясь, что та предпочитает зазнавшегося старшего брата, лучшего игрока той же команды. На борту находится также актер кино Светланов, переодетый стариком Дедушкиным для лучшего проникновения в образ будущей роли. Сотрудники института геронтологии принимают старика за профессора из Москвы Бабушкина...

Источник: DVD5 R5
Качество видео: DVDRip
Формат видео: AVI

Видео: 688x512 (4:3), 25 fps, XviD ~ 1537 kbps avg, 0.174 bit/pixel
Аудио: 48 kHz, Dolby Digital AC3 5.1, 448 kbps

Раздача от:
Общее
Полное имя : Zapasnoy.igrok.1954.DVDRip_[New-team]_by_AVP_Studio.avi
Формат : AVI
Формат/Информация : Audio Video Interleave
Размер файла : 1,09 Гбайт
Продолжительность : 1 ч. 18 м.
Общий поток : 1994 Кбит/сек
Программа кодирования : VirtualDubMod 1.5.10.3 | www.virtualdub-fr.org || (build 2550/release)
Библиотека кодирования : VirtualDubMod build 2550/release

Видео
Идентификатор : 0
Формат : MPEG-4 Visual
Профиль формата : Advanced Simple@L5
Параметр BVOP формата : 1
Параметр QPel формата : Нет
Параметр GMC формата : Без точки перехода
Параметр матрицы формата : Выборочная
Идентификатор кодека : XVID
Идентификатор кодека/Подсказка : XviD
Продолжительность : 1 ч. 18 м.
Битрейт : 1537 Кбит/сек
Ширина : 688 пикселей
Высота : 512 пикселей
Соотношение сторон : 4:3
Частота кадров : 25,000 кадров/сек
Цветовое пространство : YUV
Субдискретизация насыщенности : 4:2:0
Битовая глубина : 8 бит
Тип развёртки : Прогрессивная
Метод сжатия : С потерями
Бит/(Пиксели*Кадры) : 0.174
Размер потока : 859 Мбайт (77%)
Библиотека кодирования : XviD 1.2.1 (UTC 2008-12-04)

Аудио
Идентификатор : 1
Формат : AC-3
Формат/Информация : Audio Coding 3
Расширение режима : CM (complete main)
Параметр Endianness формата : Big
Идентификатор кодека : 2000
Продолжительность : 1 ч. 18 м.
Вид битрейта : Постоянный
Битрейт : 448 Кбит/сек
Каналы : 6 каналов
Расположение каналов : Front: L C R, Side: L R, LFE
Частота : 48,0 КГц
Частота кадров : 31,250 кадров/сек (1536 spf)
Метод сжатия : С потерями
Размер потока : 250 Мбайт (22%)
Выравнивание : Разделение по промежуткам
Продолжительность промежутка : 40 мс. (1,00 видеокадр)
Время предзагрузки промежутка : 500 мс
pb.wtf



Скачать Запасной игрок через торрент http://s017.radikal.ru/i428/1604/02/82b97127d0ae.png Скачать, смотреть онлайн Запасной игрок бесплантно в хорошем качестве Описание:Заводская команда "Синих Стрел" выходит в финал и отправляется в Сухуми на теплоходе для встречи с "Вымпелом", считающимся ... 10 10 3
Info! Золотая раздача, скачанное не засчитывается.
Торрент: Зарегистрирован [2016-04-30 12:10] · скачан: 15 раз
Статус: √ проверено
Размер: 1.09 GB
Как cкачать? Как скачать Запасной игрок через торрент | UTorrent

% Раздел Тема Автор DL S | L
Кино СССР [ 1.09 GB ] Запасной игрок [1954 СССР DVDRip-AVC от AVP Studio] AVP Studio Скачать
1 | 0
Кино СССР [ 744 MB ] Запасной игрок [1954 СССР DVDRip от AVP Studio] AVP Studio Скачать
1 | 0

28-11-2019 20:33  

Отключить всю рекламу на сайте

    Дорогой пользователь! Огромная просьба, поблагодарите релизера, оцените раздачу и оставьте свои комментарий, если Вы скачали Запасной игрок через торрент бесплатно!
    Комментировать посты могут только пользователи прошедшие не сложную регистрацию
    Показать сообщения:    

    Запасной игрок через торрент
    Скачать бесплатно Запасной игрок
    Запасной игрок скачать торрент
    Запасной игрок смотреть онлайн
    Cкачать фильм Запасной игрок бесплатно
    Запасной игрок скачать торрент в хорошем качестве
    Запасной игрок смотреть онлайн бесплатно в хорошем качестве


    Вы не можете начинать темы
    Вы не можете отвечать на сообщения
    Вы не можете редактировать свои сообщения
    Вы не можете удалять свои сообщения
    Вы не можете голосовать в опросах
    Вы не можете прикреплять файлы к сообщениям
    Вы можете скачивать файлы