Ссылка на приватное зеркало нашего сайта всего за 1$. Внимание количество ограничено!!!

2 сезон

iTunes

1 сезон

1

iTunes

iTunes

iTunes

1 сезон

RePack

30

ИГРА 18+

pack

ВАЖНО

!!Акция!!

Alien_RageХит недели

RePack

MK11
pack

Забери бонус

RePack

jed

!!Акция!!

Alien_Rage

RePack

fifa19

RePack

Assassins Creed: Odyssey

RePack

NEED FOR SPEED™ PAYBACK

4 сезон

9 сезон

Бесстыжие 9 сезон

Все сериалы

все сериалы на PB.wtf

RePack

FAR CRY 5
  

День Колумба / Columbus Day (Чарльз Бурмейстер) [2008, триллер, драма, криминал, BDRip 720p by msltel] MVO, AVO pb.wtf

День Колумба через торрент pb.wtf

Размер: 3.05 GB | Добавлен: 4 года 5 мес. назад | Торрент скачан:49 раз
Скачать  

30-04-2016 14:25 День Колумба Скачать торрент  

Название: День Колумба
Оригинальное название: Columbus Day
Год выпуска: 2008
Страна: США
Жанр: триллер, драма, криминал
Продолжительность: 01:30:27
Перевод: профессиональный многоголосый, авторский

Режиссёр: Чарльз Бурмейстер

В ролях: Вэл Килмер, Марж Хелгенбергер, Уилмер Вальдеррама, Бобби Дж. Томпсон, Эшли Джонсон, Лобо Себастьян, Майкл Мюней, Марк Келли, Шелли Мэлил, Ричард Эдсон

Описание: Эта история о человеке, только что совершившем самое большое ограбление в своей жизни. Скрываясь в парке, он пытается заключить сделку посредством телефонных звонков, чтобы продать украденное. В этом парке он встречает одинокого мальчика, общение с которым заставляет переосмыслить свои жизненные ценности...



Качество: BDRip 720p Сравнение с исходником
Формат: MKV
Видео: MPEG-4 AVC, 3989 Кбит/с, 1280x546, 23,976 кадра/с
Аудио 1: русский, AC3, 192 kbps, 2 ch, 48 kHz [профессиональный многоголосый, Рен ТВ]
Аудио 2: русский, AC3, 192 kbps, 2 ch, 48 kHz [авторский, Андрей Дольский]
Аудио 3: немецкий, AC3, 448 kbps, 6 ch, 48 kHz [дублированный]
---[Information] [30.04.2016 5:17:44] raw [info]: 1280x546p 1:1 @ 24000/1001 fps (cfr)
---[Information] [30.04.2016 5:17:44] x264 [info]: using SAR=1/1
---[Information] [30.04.2016 5:17:44] x264 [info]: using cpu capabilities: MMX2 SSE2Fast SSSE3 SSE4.2 AVX
---[Information] [30.04.2016 5:17:44] x264 [info]: profile High, level 4.1
---[Information] [30.04.2016 9:46:51] x264 [info]: frame I:1110 Avg QP:14.53 size: 96506
---[Information] [30.04.2016 9:46:51] x264 [info]: frame P:27326 Avg QP:15.71 size: 42323
---[Information] [30.04.2016 9:46:51] x264 [info]: frame B:101689 Avg QP:17.64 size: 14183
---[Information] [30.04.2016 9:46:51] x264 [info]: consecutive B-frames: 1.6% 1.9% 5.8% 19.7% 21.6% 43.9% 5.4%
---[Information] [30.04.2016 9:46:51] x264 [info]: mb I I16..4: 11.0% 67.8% 21.2%
---[Information] [30.04.2016 9:46:51] x264 [info]: mb P I16..4: 2.4% 22.2% 3.8% P16..4: 27.6% 25.6% 13.6% 0.0% 0.0% skip: 4.9%
---[Information] [30.04.2016 9:46:51] x264 [info]: mb B I16..4: 0.4% 2.7% 0.4% B16..8: 34.7% 15.9% 4.3% direct: 8.9% skip:32.9% L0:39.8% L1:40.4% BI:19.9%
---[Information] [30.04.2016 9:46:51] x264 [info]: 8x8 transform intra:77.4% inter:51.8%
---[Information] [30.04.2016 9:46:51] x264 [info]: coded y,uvDC,uvAC intra: 88.6% 90.1% 78.3% inter: 30.7% 25.5% 7.8%
---[Information] [30.04.2016 9:46:51] x264 [info]: i16 v,h,dc,p: 28% 12% 21% 40%
---[Information] [30.04.2016 9:46:51] x264 [info]: i8 v,h,dc,ddl,ddr,vr,hd,vl,hu: 16% 14% 16% 6% 8% 9% 9% 9% 11%
---[Information] [30.04.2016 9:46:51] x264 [info]: i4 v,h,dc,ddl,ddr,vr,hd,vl,hu: 25% 15% 6% 7% 10% 10% 10% 8% 10%
---[Information] [30.04.2016 9:46:51] x264 [info]: i8c dc,h,v,p: 50% 22% 17% 11%
---[Information] [30.04.2016 9:46:51] x264 [info]: Weighted P-Frames: Y:1.9% UV:1.1%
---[Information] [30.04.2016 9:46:51] x264 [info]: ref P L0: 45.8% 11.9% 20.5% 5.6% 5.7% 3.2% 3.5% 1.7% 2.1% 0.1% 0.0%
---[Information] [30.04.2016 9:46:51] x264 [info]: ref B L0: 79.0% 10.6% 4.0% 2.3% 1.6% 1.4% 0.8% 0.4%
---[Information] [30.04.2016 9:46:51] x264 [info]: ref B L1: 95.5% 4.5%
---[Information] [30.04.2016 9:46:51] x264 [info]: kb/s:3988.59
---[Information] [30.04.2016 9:46:51] encoded 130125 frames, 8.06 fps, 3988.59 kb/s
--[Information] [30.04.2016 9:46:52] Final statistics
---[Information] [30.04.2016 9:46:52] Constant Quality Mode: Quality 16 computed...
---[Information] [30.04.2016 9:46:52] Video Bitrate Obtained (approximate): 3990 kbit/s
--[Information] [30.04.2016 9:46:52] MediaInfo
---[Information] [30.04.2016 9:46:52] File: D:\Rip\День Колумба.2008.BDRemux\День Колумба.2008.BDRip.720p.mkv

Общее
Уникальный идентификатор : 187615619324824624055717234319455212961 (0x8D257434B4F816CB93D308CA7454D5A1)
Полное имя : D:\Video\День Колумба.2008.BDRip.720p.mkv
Формат : Matroska
Версия формата : Version 4 / Version 2
Размер файла : 3,05 Гбайт
Продолжительность : 1 ч. 30 м.
Общий поток : 4823 Кбит/сек
Дата кодирования : UTC 2016-04-30 06:45:50
Программа кодирования : mkvmerge v8.2.0 ('World of Adventure') 64bit
Библиотека кодирования : libebml v1.3.1 + libmatroska v1.4.2

Видео
Идентификатор : 1
Формат : AVC
Формат/Информация : Advanced Video Codec
Профиль формата : High@L4.1
Параметр CABAC формата : Да
Параметр ReFrames формата : 9 кадров
Идентификатор кодека : V_MPEG4/ISO/AVC
Продолжительность : 1 ч. 30 м.
Битрейт : 3989 Кбит/сек
Ширина : 1280 пикселей
Высота : 546 пикселей
Соотношение сторон : 2,35:1
Режим частоты кадров : Постоянный
Частота кадров : 23,976 (24000/1001) кадра/сек
Цветовое пространство : YUV
Субдискретизация насыщенности : 4:2:0
Битовая глубина : 8 бит
Тип развёртки : Прогрессивная
Бит/(Пиксели*Кадры) : 0.238
Размер потока : 2,52 Гбайт (83%)
Библиотека кодирования : x264 core 146 r2538 121396c
Настройки программы : cabac=1 / ref=9 / deblock=1:-3:-3 / analyse=0x3:0x113 / me=umh / subme=10 / psy=1 / psy_rd=1.00:0.15 / mixed_ref=1 / me_range=32 / chroma_me=1 / trellis=2 / 8x8dct=1 / cqm=0 / deadzone=21,11 / fast_pskip=1 / chroma_qp_offset=-3 / threads=6 / lookahead_threads=1 / sliced_threads=0 / nr=0 / decimate=1 / interlaced=0 / bluray_compat=0 / constrained_intra=0 / bframes=6 / b_pyramid=2 / b_adapt=2 / b_bias=0 / direct=1 / weightb=1 / open_gop=0 / weightp=2 / keyint=230 / keyint_min=23 / scenecut=40 / intra_refresh=0 / rc_lookahead=40 / rc=crf / mbtree=0 / crf=16.5 / qcomp=0.60 / qpmin=0 / qpmax=69 / qpstep=4 / vbv_maxrate=40000 / vbv_bufsize=50000 / crf_max=0.0 / nal_hrd=none / filler=0 / ip_ratio=1.40 / pb_ratio=1.30 / aq=1:1.00
Язык : English
Default : Да
Forced : Нет

Аудио #1
Идентификатор : 2
Формат : AC-3
Формат/Информация : Audio Coding 3
Расширение режима : CM (complete main)
Параметр Endianness формата : Big
Идентификатор кодека : A_AC3
Продолжительность : 1 ч. 30 м.
Вид битрейта : Постоянный
Битрейт : 192 Кбит/сек
Каналы : 2 канала
Расположение каналов : Front: L R
Частота : 48,0 КГц
Частота кадров : 31,250 кадров/сек (1536 spf)
Метод сжатия : С потерями
Размер потока : 124 Мбайт (4%)
Заголовок : MVO Рен ТВ)
Язык : Russian
Default : Да
Forced : Нет

Аудио #2
Идентификатор : 3
Формат : AC-3
Формат/Информация : Audio Coding 3
Расширение режима : CM (complete main)
Параметр Endianness формата : Big
Идентификатор кодека : A_AC3
Продолжительность : 1 ч. 30 м.
Вид битрейта : Постоянный
Битрейт : 192 Кбит/сек
Каналы : 2 канала
Расположение каналов : Front: L R
Частота : 48,0 КГц
Частота кадров : 31,250 кадров/сек (1536 spf)
Метод сжатия : С потерями
Размер потока : 124 Мбайт (4%)
Заголовок : AVO Андрей Дольский)
Язык : Russian
Default : Нет
Forced : Нет

Аудио #3
Идентификатор : 4
Формат : AC-3
Формат/Информация : Audio Coding 3
Расширение режима : CM (complete main)
Параметр Endianness формата : Big
Идентификатор кодека : A_AC3
Продолжительность : 1 ч. 30 м.
Вид битрейта : Постоянный
Битрейт : 448 Кбит/сек
Каналы : 6 каналов
Расположение каналов : Front: L C R, Side: L R, LFE
Частота : 48,0 КГц
Частота кадров : 31,250 кадров/сек (1536 spf)
Метод сжатия : С потерями
Размер потока : 290 Мбайт (9%)
Заголовок : DUB
Язык : German
Default : Нет
Forced : Нет
pb.wtf



Скачать День Колумба через торрент http://s018.radikal.ru/i514/1604/92/a87fb1e95ef1.jpg Скачать фильм День Колумба через торрент бесплантно в хорошем качестве Описание: Эта история о человеке, только что совершившем самое большое ограбление в своей жизни. Скрываясь в парке, он пытается заключить ... 8.7 10 7
Info! Золотая раздача, скачанное не засчитывается.
Торрент: Зарегистрирован [2016-04-30 14:25] · скачан: 49 раз
Статус: √ проверено
Размер: 3.05 GB
Как cкачать? Как скачать День Колумба через торрент | qTorrent

% Раздел Тема Автор DL S | L
Фильмы [HD 720p, 1080p] (Хороший звук DUB, MVO) [ 8.48 GB ] День Колумба / Columbus Day [2008 BDRip 1080p by msltel] MVO AVO msltel Скачать
1 | 0

28-11-2019 20:33  

Отключить всю рекламу на сайте

    Дорогой пользователь! Огромная просьба, поблагодарите релизера, оцените раздачу и оставьте свои комментарий, если Вы скачали День Колумба через торрент бесплатно! Внесите свою лепту в развитие PiratBit!
    Комментировать посты могут только пользователи прошедшие не сложную регистрацию
    Показать сообщения:    

    День Колумба через торрент
    Скачать бесплатно День Колумба
    День Колумба скачать торрент
    День Колумба смотреть онлайн
    Cкачать фильм День Колумба бесплатно
    День Колумба скачать торрент в хорошем качестве
    День Колумба смотреть онлайн бесплатно в хорошем качестве


    Вы не можете начинать темы
    Вы не можете отвечать на сообщения
    Вы не можете редактировать свои сообщения
    Вы не можете удалять свои сообщения
    Вы не можете голосовать в опросах
    Вы не можете прикреплять файлы к сообщениям
    Вы можете скачивать файлы