2 сезон

iTunes

MVO

1

2 сезон

iTunes

iTunes

1 сезон

RePack

30

Новинка

ВАЖНО

ИГРА 18+

pack

RePack

MK11
pack

Легкие деньги

RePack

jed

RePack

fifa19

RePack

RDR2

RePack

NEED FOR SPEED™ PAYBACK

4 сезон

9 сезон

Бесстыжие 9 сезон

Все сериалы

все сериалы на PB.wtf

RePack

FAR CRY 5

Anonymous, доброе утро, мы не успеваем собрать деньги на оплату серверов за декабрь и январь, помогите нам пожалуйста в это трудное время. В качестве благодарности мы отключим Вам всю рекламу на сайте (укажите свой ник в строку Ваше имя)!

×
  
Magnet ссылка

Эли / Heli (Амат Эскаланте) [2013 г., драма, мелодрама, криминал, HDRip, Профессиональный многоголосый закадровый "НТВ+"] pb.wtf

Эли через торрент pb.wtf

Размер: 2.16 GB | Добавлен: 4 года 8 мес. назад | Торрент скачан:150 раз
Скачать  

30-04-2016 18:26 Эли Скачать торрент  

Эли / Heli
Год выпуска: 2013
Страна: Мексика, Нидерланды, Германия, Франция / Mantarraya Producciones, Tres Tunas, No Dream Cinema
Жанр: драма, мелодрама, криминал
Продолжительность: 01:44:55
Перевод: Профессиональный многоголосый закадровый (НТВ+)

Режиссер: Амат Эскаланте

IMDB 6.80 (3329)


В ролях: Армандо Эспития, Андреа Вергара, Линда Гонсалес, Хуан Эдуардо Палашиос, Реина Торрес, Рамон Алварез, Гэбриел Рейс, Феликс Альберто Пегуэрос Херрера, Кенни Джонстон, Лаура Салданья Куинтеро

Описание: Когда 12-летняя Эстела влюбляется в полицейского, замешанного в торговле наркотиками, мексиканская семья оказывается втянутой в насилие и жестокость.

Доп. информация: •Фильм содержит сцены насилия и жестокости и не рекомендуется к просмотру впечатлительным людям.

•18+. Запрещено для детей.


Качество: HDRip
Формат: AVI
Видео кодек: XviD
Аудио кодек: AC3
Видео: MPEG4, XviD, 720x400 (16:9), 24.000 fps, 2 493 Kbps (0.361 bit/pixel)
Аудио: AC-3, 48.0 KHz, 6 ch, 448 Kbps, CBR

Общее
Полное имя : F:\кино\Эли.2013.HDRip.avi
Формат : AVI
Формат/Информация : Audio Video Interleave
Профиль формата : OpenDML
Размер файла : 2,16 Гбайт
Продолжительность : 1 ч. 44 м.
Общий поток : 2953 Кбит/сек
Программа кодирования : VirtualDubMod 1.5.10.3 | www.virtualdub-fr.org || (build 2550/release)
Библиотека кодирования : VirtualDubMod build 2550/release

Видео
Идентификатор : 0
Формат : MPEG-4 Visual
Профиль формата : Advanced Simple@L5
Параметр BVOP формата : 2
Параметр QPel формата : Нет
Параметр GMC формата : Без точки перехода
Параметр матрицы формата : Default (H.263)
Идентификатор кодека : XVID
Идентификатор кодека/Подсказка : XviD
Продолжительность : 1 ч. 44 м.
Битрейт : 2493 Кбит/сек
Ширина : 720 пикселей
Высота : 400 пикселей
Соотношение сторон : 16:9
Частота кадров : 24,000 кадра/сек
Цветовое пространство : YUV
Субдискретизация насыщенности : 4:2:0
Битовая глубина : 8 бит
Тип развёртки : Прогрессивная
Метод сжатия : С потерями
Бит/(Пиксели*Кадры) : 0.361
Размер потока : 1,83 Гбайт (84%)
Библиотека кодирования : XviD 1.2.1 (UTC 2008-12-04)

Аудио
Идентификатор : 1
Формат : AC-3
Формат/Информация : Audio Coding 3
Расширение режима : CM (complete main)
Параметр Endianness формата : Big
Идентификатор кодека : 2000
Продолжительность : 1 ч. 44 м.
Вид битрейта : Постоянный
Битрейт : 448 Кбит/сек
Каналы : 6 каналов
Расположение каналов : Front: L C R, Side: L R, LFE
Частота : 48,0 КГц
Частота кадров : 31,250 кадров/сек (1536 spf)
Метод сжатия : С потерями
Размер потока : 336 Мбайт (15%)
Выравнивание : Разделение по промежуткам
Продолжительность промежутка : 42 мс. (1,00 видеокадр)
Время предзагрузки промежутка : 500 мс.

pb.wtf



Скачать Эли через торрент http://pic.kartinco.top/images/11/gkzh1.jpg Скачать фильм Эли через торрент бесплантно в хорошем качестве Описание: Когда 12-летняя Эстела влюбляется в полицейского, замешанного в торговле наркотиками, мексиканская семья оказывается втянутой в ... 8.8 10 8
Торрент: Зарегистрирован [2016-04-30 18:26] · скачан: 150 раз
Статус: √ проверено
Размер: 2.16 GB
Как cкачать? Как скачать Эли через торрент | UTorrent

% Раздел Тема Автор DL S | L
Фильмы 2013 [DVDrip, WEB-DLRip, HDrip] [ 1.46 GB ] Эли / Heli [2013 HDRip многоголосый [НТВ Ворон Скачать
1 | 0

28-11-2019 20:33  

Отключить всю рекламу на сайте

01-05-2016 00:49 Эли Скачать торрент  

ладно хоть 12-летняя п..да влюбляется в 17-летнего полицейского, а не в 14-летнегоpb.wtf



03-05-2016 12:02 Эли Скачать торрент  

рецензия к фильму тянет на ст.134 УК РФ
фильм запрещён для детей..но акёры ..ука дети...
pb.wtf



    Дорогой пользователь! Огромная просьба, поблагодарите релизера, оцените раздачу и оставьте свои комментарий, если Вы скачали Эли через торрент бесплатно! Внесите свою лепту в развитие PiratBit!
    Комментировать посты могут только пользователи прошедшие не сложную регистрацию
    Показать сообщения:    

    Эли через торрент
    Скачать бесплатно Эли
    Эли скачать торрент
    Эли смотреть онлайн
    Cкачать фильм Эли бесплатно
    Эли скачать торрент в хорошем качестве
    Эли смотреть онлайн бесплатно в хорошем качестве


    Вы не можете начинать темы
    Вы не можете отвечать на сообщения
    Вы не можете редактировать свои сообщения
    Вы не можете удалять свои сообщения
    Вы не можете голосовать в опросах
    Вы не можете прикреплять файлы к сообщениям
    Вы можете скачивать файлы