Ссылка на приватное зеркало всего за 1$. Внимание количество ограничено!!!

iTunes

iTunes

iTunes

1

iTunes

iTunes

iTunes

iTunes

iTunes

30
pack

$ от Little Big

ВАЖНО

!!Акция!!

Alien_RageХит недели

RePack

Resident Evil 21

ИГРА 18+

pack

RePack

jed

!!Акция!!

Alien_Rage

RePack

fifa19

RePack

Assassins Creed: Odyssey

RePack

NEED FOR SPEED™ PAYBACK

4 сезон

9 сезон

Бесстыжие 9 сезон

Все сериалы

все сериалы на PB.wtf

RePack

FAR CRY 5
  

Три девятки / Triple 9 (Джон Хиллкоут) [2016 г., криминал, драма, триллер, WEB-DL 1080p, Дубляж iTunes] pb.wtf

Три девятки через торрент pb.wtf

Размер: 4.45 GB | Добавлен: 4 года 2 мес. назад | Торрент скачан:480 раз
Скачать  

30-04-2016 21:39 Три девятки Скачать торрент  

Три девятки / Triple 9Год выпуска: 2016
Страна: США
Жанр: криминал, драма, триллер
Продолжительность: 110 мин. / 01:50
Перевод: Дубляж iTunes
Тип релиза: Лицензия

Режиссер: Джон Хиллкоут
Продюссер: Марк Бутан, Бард Доррос, Энтони Катагас
Сценарий: Мэтт Кук

Бюджет: $28 000 000
Премьера в мире: 19 февраля 2016



В ролях: Чиветель Эджиофор, Кейси Аффлек, Энтони Маки, Вуди Харрельсон, Кейт Уинслет, Аарон Пол, Клифтон Коллинз мл., Норман Ридус, Галь Гадот, Тереза Палмер, Дмитрий Поляновский, Михаил Тихонов, Станислав Тикунов, Валерий Сторожик, Елена Харитонова

Описание: Банда преступников и коррумпированных копов планирует убить полицейского, чтобы провернуть ограбление на другом конце города.

Качество: WEB-DL 1080p
Формат: MKV
Видео кодек: MPEG4
Аудио кодек: AC3
Видео: MPEG-4 AVC, 5119 Кбит/с, 25,000 кадров/сек, 1920x800
Аудио#1: Русский AС3, 48,0 КГц, 6 ch, 384 Кбит/с
Аудио#2: Английский AС3, 48,0 КГц, 2 ch, 265 Кбит/с

Формат : Matroska
Версия формата : Version 2
Размер файла : 4,45 Гбайт
Продолжительность : 1 ч. 50 м.
Общий поток : 5761 Кбит/сек
Дата кодирования : UTC 2016-04-30 18:09:24
Программа кодирования : mkvmerge v8.3.0 ('Over the Horizon') 64bit
Библиотека кодирования : libebml v1.3.1 + libmatroska v1.4.2

Видео
Идентификатор : 1
Формат : AVC
Формат/Информация : Advanced Video Codec
Профиль формата : High@L4
Параметр CABAC формата : Да
Параметр ReFrames формата : 4 кадра
Идентификатор кодека : V_MPEG4/ISO/AVC
Продолжительность : 1 ч. 50 м.
Битрейт : 5119 Кбит/сек
Ширина : 1920 пикселей
Высота : 800 пикселей
Соотношение сторон : 2,40:1
Режим частоты кадров : Постоянный
Частота кадров : 25,000 кадров/сек
Цветовое пространство : YUV
Субдискретизация насыщенности : 4:2:0
Битовая глубина : 8 бит
Тип развёртки : Прогрессивная
Бит/(Пиксели*Кадры) : 0.133
Размер потока : 3,95 Гбайт (89%)
Язык : English
Default : Да
Forced : Нет

Аудио #1
Идентификатор : 2
Формат : AC-3
Формат/Информация : Audio Coding 3
Расширение режима : CM (complete main)
Параметр Endianness формата : Big
Идентификатор кодека : A_AC3
Продолжительность : 1 ч. 50 м.
Вид битрейта : Постоянный
Битрейт : 384 Кбит/сек
Каналы : 6 каналов
Расположение каналов : Front: L C R, Side: L R, LFE
Частота : 48,0 КГц
Частота кадров : 31,250 кадров/сек (1536 spf)
Метод сжатия : С потерями
Размер потока : 304 Мбайт (7%)
Default : Да
Forced : Нет

Аудио #2
Идентификатор : 3
Формат : AC-3
Формат/Информация : Audio Coding 3
Расширение режима : CM (complete main)
Параметр Endianness формата : Big
Идентификатор кодека : A_AC3
Продолжительность : 1 ч. 50 м.
Вид битрейта : Постоянный
Битрейт : 256 Кбит/сек
Каналы : 2 канала
Расположение каналов : Front: L R
Частота : 48,0 КГц
Частота кадров : 31,250 кадров/сек (1536 spf)
Метод сжатия : С потерями
Размер потока : 202 Мбайт (4%)
Язык : English
Default : Нет
Forced : Нет

Три девятки скачать торрент

pb.wtf



Скачать Три девятки через торрент http://pic.kartinco.top/images/11/29ihr.jpg Скачать фильм Три девятки через торрент бесплантно в хорошем качестве Описание: Банда преступников и коррумпированных копов планирует убить полицейского, чтобы провернуть ограбление на другом конце ... 9.1 10 11
Торрент: Зарегистрирован [2016-04-30 21:39] · скачан: 480 раз
Статус: √ проверено
Размер: 4.45 GB
Как cкачать? Как скачать Три девятки через торрент | qTorrent

% Раздел Тема Автор DL S | L
Фильмы [HD 720p, 1080p] (Хороший звук DUB, MVO) [ 12.37 GB ] Три девятки / Triple 9 [2016 BDRip 1080p] DUB [ R5] bober100 Скачать
1 | 0
Фильмы [HD 720p, 1080p] (Хороший звук DUB, MVO) [ 10.19 GB ] Три девятки / Triple 9 [2016 BDRip 720p] DUB [ R5] bober100 Скачать
1 | 0
Фильмы 2016 [DVDrip, WEB-DLRip, HDrip] (DUB, MVO) [ 2.18 GB ] Три девятки / Triple 9 [2016 HDRip "BD RUS"] coc900 Скачать
1 | 0
Фильмы (Blu-ray, BD-Remux, HDDVD) [ 18.45 GB ] Три девятки / Triple 9 [2016 BD Remux 1080p] DUB [] bober100 Скачать
1 | 0
Фильмы 2016 [DVDrip, WEB-DLRip, HDrip] (DUB, MVO) [ 1.46 GB ] Три девятки / Triple 9 [2016 BDRip] - [] Twi7ter Скачать
2 | 0
Фильмы (DVD фильмы) [ 7.1 GB ] Три девятки / Triple 9 [2016 DVD9] R5 voovaz Скачать
1 | 0
Фильмы 2016 [DVDrip, WEB-DLRip, HDrip] (DUB, MVO) [ 2.18 GB ] Три девятки / Triple 9 [2016 BDRip] MVO+AVO bober100 Скачать
1 | 0

28-11-2019 20:33  

Отключить всю рекламу на сайте

03-05-2016 14:44 Три девятки Скачать торрент  

В начале фильма, фото с места убийства немцова.
Кино неоднозначное, 6/10pb.wtf



04-05-2016 16:17 Три девятки Скачать торрент  

депрессивный фильм. не советую.pb.wtf



16-01-2017 13:24 Три девятки Скачать торрент  

хороший сюжет, хорошая игра актеров... что вам ещё нужно...
очень похоже на "отступники" 8/10pb.wtf



    Дорогой пользователь! Огромная просьба, поблагодарите релизера, оцените раздачу и оставьте свои комментарий, если Вы скачали Три девятки через торрент бесплатно! Внесите свою лепту в развитие PiratBit!
    Комментировать посты могут только пользователи прошедшие не сложную регистрацию
    Показать сообщения:    

    Три девятки через торрент
    Скачать бесплатно Три девятки
    Три девятки скачать торрент
    Три девятки смотреть онлайн
    Cкачать фильм Три девятки бесплатно
    Три девятки скачать торрент в хорошем качестве
    Три девятки смотреть онлайн бесплатно в хорошем качестве


    Вы не можете начинать темы
    Вы не можете отвечать на сообщения
    Вы не можете редактировать свои сообщения
    Вы не можете удалять свои сообщения
    Вы не можете голосовать в опросах
    Вы не можете прикреплять файлы к сообщениям
    Вы можете скачивать файлы