Death Stranding+DLC+АВТОАКТИВАЦИЯ

iTunes

iTunes

iTunes

1

iTunes

iTunes

iTunes

iTunes

iTunes

30
pack

$ от Little Big

ВАЖНО

!!Акция!!

Alien_RageХит недели

RePack

Resident Evil 21

ИГРА 18+

pack

RePack

jed

!!Акция!!

Alien_Rage

RePack

fifa19

RePack

Assassins Creed: Odyssey

RePack

NEED FOR SPEED™ PAYBACK

4 сезон

9 сезон

Бесстыжие 9 сезон

Все сериалы

все сериалы на PB.wtf

RePack

FAR CRY 5
  

Жертва / Sacrifice (Питер Э. Даулинг / Peter A. Dowling) [2016, Ирландия, триллер, WEB-DL 720p) VO [Xixidok] + ENG pb.wtf

Жертва через торрент pb.wtf

Размер: 2.97 GB | Добавлен: 4 года 2 мес. назад | Торрент скачан:155 раз
Скачать  

01-05-2016 01:47 Жертва Скачать торрент  

Жертва / Sacrifice


  • Год выпуска: 2016
  • Страна: Ирландия
  • Жанр: триллер
  • Продолжительность: 01:30:58
  • Перевод: Любительский (одноголосый) [Xixidok]
  • Субтитры: английские
  • Режиссер: Питер Э. Даулинг / Peter A. Dowling
  • В ролях:

    Рада Митчелл (Dr. Tora Hamilton), Руперт Грейвз (Duncan Guthrie), Йен МакЭлхинни (D.I. McKie), Дэвид Робб (Richard Guthrie), Лайам Карни (Mr. Grey), Питер Фоллебрегт (Kenn Wickliff), Деклан Конлон (Stephen Gair), Леса Турман (NY Hospital Nurse), Конор Маллен (Stephen Renney), Джоэнн Кроуфорд (Sgt. Dana Tulloch), Хилари Роуз (Janice Shaw), Дирдри Монахэн (Elspeth Guthrie)


  • Консультирующий хирург Тора Гамильтон вместе с мужем Дунканом переезжает на удаленные Шетландские острова, в 100 милях от северо-восточного побережья Шотландии. На территории своего нового дома Тора находит изрезанное руническими знаками тело молодой женщины, вместо сердца у которой - дыра. Не обращая внимания на предупреждения оставить все как есть, Тора все ближе подбирается к страшнейшей легенде, которую никто и никогда не осмелился бы записать.
  • Рейтинг:



  • Качество: WEB-DL 720p
  • Формат: :MKV
  • Видео кодек: AVC
  • Аудио кодек: AC3
  • Видео: 1280x532 (2.40:1), 4011 kbps, 23,976 fps, 0,246 bpp
  • Аудио №1: русский / 2.0 / 48 kHz / 192 kbps / 16 bit |[Xixidok]|
  • Аудио №2: английский / 5.1 / 48 kHz / 384 kbps / 16 bit
  • Релиз от: GEKADOL

    Код:

    General
    Unique ID                                : 199728144629397632825149733234865681523 (0x96423DCF8700D6AAB78DFED634813473)
    Complete name                            : G:\Sacrifice.2016.L1.WEB-DL.720p.mkv
    Format                                   : Matroska
    Format version                           : Version 2
    File size                                : 2.97 GiB
    Duration                                 : 1h 30mn
    Overall bit rate                         : 4 680 Kbps
    Encoded date                             : UTC 2016-04-30 19:32:25
    Writing application                      : mkvmerge v7.8.0 ('River Man') 32bit built on Apr  3 2015 12:11:22
    Writing library                          : libebml v1.3.1 + libmatroska v1.4.2

    Video
    ID                                       : 1
    Format                                   : AVC
    Format/Info                              : Advanced Video Codec
    Format profile                           : Main@L3.1
    Format settings, CABAC                   : No
    Format settings, ReFrames                : 2 frames
    Codec ID                                 : V_MPEG4/ISO/AVC
    Duration                                 : 1h 30mn
    Bit rate                                 : 4 011 Kbps
    Width                                    : 1 280 pixels
    Height                                   : 532 pixels
    Display aspect ratio                     : 2.40:1
    Frame rate                               : 23.976 fps
    Color space                              : YUV
    Chroma subsampling                       : 4:2:0
    Bit depth                                : 8 bits
    Scan type                                : Progressive
    Bits/(Pixel*Frame)                       : 0.246
    Stream size                              : 2.55 GiB (86%)
    Language                                 : English
    Default                                  : Yes
    Forced                                   : No
    Color primaries                          : BT.709-5, BT.1361, IEC 61966-2-4, SMPTE RP177
    Transfer characteristics                 : BT.709-5, BT.1361
    Matrix coefficients                      : BT.709-5, BT.1361, IEC 61966-2-4 709, SMPTE RP177

    Audio #1
    ID                                       : 2
    Format                                   : AC-3
    Format/Info                              : Audio Coding 3
    Mode extension                           : CM (complete main)
    Codec ID                                 : A_AC3
    Duration                                 : 1h 30mn
    Bit rate mode                            : Constant
    Bit rate                                 : 192 Kbps
    Channel(s)                               : 2 channels
    Channel positions                        : Front: L R
    Sampling rate                            : 48.0 KHz
    Bit depth                                : 16 bits
    Compression mode                         : Lossy
    Stream size                              : 125 MiB (4%)
    Language                                 : Russian
    Default                                  : Yes
    Forced                                   : No

    Audio #2
    ID                                       : 3
    Format                                   : AC-3
    Format/Info                              : Audio Coding 3
    Mode extension                           : CM (complete main)
    Codec ID                                 : A_AC3
    Duration                                 : 1h 30mn
    Bit rate mode                            : Constant
    Bit rate                                 : 384 Kbps
    Channel(s)                               : 6 channels
    Channel positions                        : Front: L C R, Side: L R, LFE
    Sampling rate                            : 48.0 KHz
    Bit depth                                : 16 bits
    Compression mode                         : Lossy
    Stream size                              : 250 MiB (8%)
    Language                                 : English
    Default                                  : No
    Forced                                   : No

    Text
    ID                                       : 4
    Format                                   : UTF-8
    Codec ID                                 : S_TEXT/UTF8
    Codec ID/Info                            : UTF-8 Plain Text
    Language                                 : English
    Default                                  : No
    Forced                                   : No

    Menu
    00:00:00.000                             : en:1
    00:10:23.000                             : en:2
    00:20:18.000                             : en:3
    00:30:02.000                             : en:4
    00:40:03.000                             : en:5
    00:51:41.000                             : en:6
    01:00:47.000                             : en:7
    01:10:33.000                             : en:8
    01:20:12.000                             : en:9
    01:28:59.000                             : en:10




    Скриншоты:



    pb.wtf



  • Скачать Жертва через торрент http://i6.imageban.ru/out/2016/05/01/8d92073d8329a0ac8b53ba450c087409.jpg Скачать фильм Жертва через торрент бесплантно в хорошем качестве qw.png Консультирующий хирург Тора Гамильтон вместе с мужем Дунканом переезжает на удаленные Шетландские острова, в 100 милях от ... 8.5 10 6
    Торрент: Зарегистрирован [2016-05-01 01:47] · скачан: 155 раз
    Статус: T временная
    Размер: 2.97 GB
    Как cкачать? Как скачать Жертва через торрент | qTorrent

    % Раздел Тема Автор DL S | L
    T Фильмы 2016 (Звук TS, Cam, VO, DVO) [ 1.45 GB ] Жертва / Sacrifice [2016 Ирландия WEB-DLRip) VO [Xixidok] + ENG GEKADOL Скачать
    1 | 0

    28-11-2019 20:33  

    Отключить всю рекламу на сайте

    01-05-2016 02:49 Жертва Скачать торрент  

    Посмотрим ,Спс.pb.wtf



    01-05-2016 02:58 Жертва Скачать торрент  

    rayl116rus писал(а):

    Посмотрим ,Спс.

    pb.wtf



    01-05-2016 03:06 Жертва Скачать торрент  

    Ща на дачу пилить, приеду посмотрю.Потом и это будет.pb.wtf



    01-05-2016 10:18 Жертва Скачать торрент  

    Вот ведь лень человеческая лайкнуть ,кнопку нажать леньpb.wtf



      Дорогой пользователь! Огромная просьба, поблагодарите релизера, оцените раздачу и оставьте свои комментарий, если Вы скачали Жертва через торрент бесплатно! Внесите свою лепту в развитие PiratBit!
      Комментировать посты могут только пользователи прошедшие не сложную регистрацию
      Показать сообщения:    

      Жертва через торрент
      Скачать бесплатно Жертва
      Жертва скачать торрент
      Жертва смотреть онлайн
      Cкачать фильм Жертва бесплатно
      Жертва скачать торрент в хорошем качестве
      Жертва смотреть онлайн бесплатно в хорошем качестве


      Вы не можете начинать темы
      Вы не можете отвечать на сообщения
      Вы не можете редактировать свои сообщения
      Вы не можете удалять свои сообщения
      Вы не можете голосовать в опросах
      Вы не можете прикреплять файлы к сообщениям
      Вы можете скачивать файлы