Ссылка на приватное зеркало нашего сайта всего за 1$. Внимание количество ограничено!!!

2 сезон

iTunes

1 сезон

1

iTunes

iTunes

iTunes

1 сезон

RePack

30

ИГРА 18+

pack

ВАЖНО

!!Акция!!

Alien_RageХит недели

RePack

MK11
pack

Забери бонус

RePack

jed

!!Акция!!

Alien_Rage

RePack

fifa19

RePack

Assassins Creed: Odyssey

RePack

NEED FOR SPEED™ PAYBACK

4 сезон

9 сезон

Бесстыжие 9 сезон

Все сериалы

все сериалы на PB.wtf

RePack

FAR CRY 5
  

Должник / The Liability (Крэйг Вивейрос) [2012, триллер, криминал, BDRip 1080p by msltel] MVO, DVO, VO (профессиональный) pb.wtf

Должник через торрент pb.wtf

Размер: 5.83 GB | Добавлен: 4 года 5 мес. назад | Торрент скачан:179 раз
Скачать  

01-05-2016 11:06 Должник Скачать торрент  

Название: Должник
Оригинальное название: The Liability
Год выпуска: 2012
Страна: Великобритания
Жанр: триллер, криминал
Продолжительность: 01:26:00
Перевод: Профессиональный многоголосый, профессиональный двухголосый, профессиональный одноголосый

Режиссёр: Крэйг Вивейрос

В ролях: Тим Рот, Джек О`Коннелл, Талула Райли, Питер Муллан, Фэй Вэрэйнг, Кристофер Хатрэлл, Дженни Пайк, Джек МакБрайд, Клив Шоу, Энди МакАдам

Описание: Когда 19-летний Адам, разбив машину отчима, соглашается на работу, предложенную им, то обрекает себя на путешествие в кошмарный мир убийств, секс-торговли и мести...



Качество: BDRip 1080p Сравнение с исходником
Формат: MKV
Видео: MPEG-4 AVC, 7174 Кбит/с, 1920x802, 24 кадр/с
Аудио 1: русский, AC3, 448 kbps, 6 ch, 48 kHz [профессиональный многоголосый, Кинолюкс]
Аудио 2: русский, AC3, 192 kbps, 2 ch, 48 kHz [профессиональный двухголосый, HTB+]
Аудио 3: русский, AC3, 384 kbps, 6 ch, 48 kHz [профессиональный одноголосый, Антон Киреев по переводу Алексея Матвеева]
Аудио 4: английский, DTS, 1509 kbps, 6 ch, 48 kHz [оригинал]
Субтитры 1: русские
Субтитры 2: английские
---[Information] [01.05.2016 15:53:16] x264 [info]: frame I:1009 Avg QP:13.05 size:152623
---[Information] [01.05.2016 15:53:16] x264 [info]: frame P:25887 Avg QP:13.96 size: 70295
---[Information] [01.05.2016 15:53:16] x264 [info]: frame B:96911 Avg QP:15.53 size: 27369
---[Information] [01.05.2016 15:53:16] x264 [info]: consecutive B-frames: 2.0% 2.2% 6.8% 17.3% 17.1% 41.8% 7.5% 1.3% 1.3% 1.5% 1.2%
---[Information] [01.05.2016 15:53:16] x264 [info]: mb I I16..4: 19.3% 59.3% 21.4%
---[Information] [01.05.2016 15:53:16] x264 [info]: mb P I16..4: 9.1% 23.7% 7.7% P16..4: 25.3% 17.7% 9.4% 0.0% 0.0% skip: 7.1%
---[Information] [01.05.2016 15:53:16] x264 [info]: mb B I16..4: 2.5% 5.8% 1.1% B16..8: 31.6% 13.6% 3.2% direct: 9.4% skip:32.6% L0:43.3% L1:43.6% BI:13.1%
---[Information] [01.05.2016 15:53:16] x264 [info]: 8x8 transform intra:60.0% inter:47.3%
---[Information] [01.05.2016 15:53:16] x264 [info]: coded y,uvDC,uvAC intra: 78.7% 72.8% 55.7% inter: 24.8% 24.9% 5.7%
---[Information] [01.05.2016 15:53:16] x264 [info]: i16 v,h,dc,p: 33% 15% 28% 23%
---[Information] [01.05.2016 15:53:16] x264 [info]: i8 v,h,dc,ddl,ddr,vr,hd,vl,hu: 19% 16% 26% 5% 6% 7% 7% 7% 8%
---[Information] [01.05.2016 15:53:16] x264 [info]: i4 v,h,dc,ddl,ddr,vr,hd,vl,hu: 25% 14% 18% 6% 8% 9% 7% 6% 6%
---[Information] [01.05.2016 15:53:16] x264 [info]: i8c dc,h,v,p: 52% 21% 20% 7%
---[Information] [01.05.2016 15:53:16] x264 [info]: Weighted P-Frames: Y:2.8% UV:1.7%
---[Information] [01.05.2016 15:53:16] x264 [info]: ref P L0: 53.9% 10.0% 24.5% 10.7% 0.9% 0.0%
---[Information] [01.05.2016 15:53:16] x264 [info]: ref B L0: 83.9% 12.9% 3.2%
---[Information] [01.05.2016 15:53:16] x264 [info]: ref B L1: 90.4% 9.6%
---[Information] [01.05.2016 15:53:16] x264 [info]: kb/s:7174.08
---[Information] [01.05.2016 15:53:16] encoded 123807 frames, 4.99 fps, 7174.08 kb/s
---[Information] [01.05.2016 15:53:16] avs [info]: AviSynth+ 0.1 (r1576, x86)
---[Information] [01.05.2016 15:53:16] avs [info]: Video colorspace: YV12
---[Information] [01.05.2016 15:53:16] avs [info]: Video resolution: 1920x802
---[Information] [01.05.2016 15:53:16] avs [info]: Video framerate: 48000/2000
---[Information] [01.05.2016 15:53:16] avs [info]: Video framecount: 123807
---[Information] [01.05.2016 15:53:16] avs4x26x [info]: "x264_64" - --level 4.1 --tune film --crf 17.0 --keyint 230 --bframes 10 --b-adapt 2 --ref 4 --vbv-bufsize 50000 --vbv-maxrate 40000 --no-mbtree --merange 32 --me umh --subme 10 --trellis 2 --sar 1:1 --output D:\Rip\Должник.2012.BDRemux\Должник.2012.BDRip.1080p.mkv --frames 123807 --fps 48000/2000 --input-res 1920x802 --input-csp i420
--[Information] [01.05.2016 15:53:17] Final statistics
---[Information] [01.05.2016 15:53:17] Constant Quality Mode: Quality 17 computed...
---[Information] [01.05.2016 15:53:17] Video Bitrate Obtained (approximate): 7175 kbit/s
--[Information] [01.05.2016 15:53:17] MediaInfo
---[Information] [01.05.2016 15:53:17] File: D:\Rip\Должник.2012.BDRemux\Должник.2012.BDRip.1080p.mkv

Общее
Уникальный идентификатор : 183558937287211622480174116466485133256 (0x8A182A56E072807F9075FC61C5A47FC8)
Полное имя : D:\Video\Должник.2012.BDRip.1080p.mkv
Формат : Matroska
Версия формата : Version 4 / Version 2
Размер файла : 5,83 Гбайт
Продолжительность : 1 ч. 26 м.
Общий поток : 9708 Кбит/сек
Дата кодирования : UTC 2016-05-01 09:55:16
Программа кодирования : mkvmerge v8.2.0 ('World of Adventure') 64bit
Библиотека кодирования : libebml v1.3.1 + libmatroska v1.4.2

Видео
Идентификатор : 1
Формат : AVC
Формат/Информация : Advanced Video Codec
Профиль формата : High@L4.1
Параметр CABAC формата : Да
Параметр ReFrames формата : 4 кадра
Идентификатор кодека : V_MPEG4/ISO/AVC
Продолжительность : 1 ч. 25 м.
Битрейт : 7174 Кбит/сек
Ширина : 1920 пикселей
Высота : 802 пикселя
Соотношение сторон : 2,40:1
Режим частоты кадров : Постоянный
Частота кадров : 24,000 кадра/сек
Цветовое пространство : YUV
Субдискретизация насыщенности : 4:2:0
Битовая глубина : 8 бит
Тип развёртки : Прогрессивная
Бит/(Пиксели*Кадры) : 0.194
Размер потока : 4,31 Гбайт (74%)
Библиотека кодирования : x264 core 146 r2538 121396c
Настройки программы : cabac=1 / ref=4 / deblock=1:-1:-1 / analyse=0x3:0x113 / me=umh / subme=10 / psy=1 / psy_rd=1.00:0.15 / mixed_ref=1 / me_range=32 / chroma_me=1 / trellis=2 / 8x8dct=1 / cqm=0 / deadzone=21,11 / fast_pskip=1 / chroma_qp_offset=-3 / threads=6 / lookahead_threads=1 / sliced_threads=0 / nr=0 / decimate=1 / interlaced=0 / bluray_compat=0 / constrained_intra=0 / bframes=10 / b_pyramid=2 / b_adapt=2 / b_bias=0 / direct=1 / weightb=1 / open_gop=0 / weightp=2 / keyint=230 / keyint_min=23 / scenecut=40 / intra_refresh=0 / rc_lookahead=40 / rc=crf / mbtree=0 / crf=17.0 / qcomp=0.60 / qpmin=0 / qpmax=69 / qpstep=4 / vbv_maxrate=40000 / vbv_bufsize=50000 / crf_max=0.0 / nal_hrd=none / filler=0 / ip_ratio=1.40 / pb_ratio=1.30 / aq=1:1.00
Язык : English
Default : Да
Forced : Нет

Аудио #1
Идентификатор : 2
Формат : AC-3
Формат/Информация : Audio Coding 3
Расширение режима : CM (complete main)
Параметр Endianness формата : Big
Идентификатор кодека : A_AC3
Продолжительность : 1 ч. 25 м.
Вид битрейта : Постоянный
Битрейт : 448 Кбит/сек
Каналы : 6 каналов
Расположение каналов : Front: L C R, Side: L R, LFE
Частота : 48,0 КГц
Частота кадров : 31,250 кадров/сек (1536 spf)
Метод сжатия : С потерями
Размер потока : 275 Мбайт (5%)
Заголовок : MVO (Кинолюкс)
Язык : Russian
Default : Да
Forced : Нет

Аудио #2
Идентификатор : 3
Формат : AC-3
Формат/Информация : Audio Coding 3
Расширение режима : CM (complete main)
Параметр Endianness формата : Big
Идентификатор кодека : A_AC3
Продолжительность : 1 ч. 25 м.
Вид битрейта : Постоянный
Битрейт : 192 Кбит/сек
Каналы : 2 канала
Расположение каналов : Front: L R
Частота : 48,0 КГц
Частота кадров : 31,250 кадров/сек (1536 spf)
Метод сжатия : С потерями
Размер потока : 118 Мбайт (2%)
Заголовок : DVO (HTB+)
Язык : Russian
Default : Нет
Forced : Нет

Аудио #3
Идентификатор : 4
Формат : AC-3
Формат/Информация : Audio Coding 3
Расширение режима : CM (complete main)
Параметр Endianness формата : Big
Идентификатор кодека : A_AC3
Продолжительность : 1 ч. 26 м.
Вид битрейта : Постоянный
Битрейт : 384 Кбит/сек
Каналы : 6 каналов
Расположение каналов : Front: L C R, Side: L R, LFE
Частота : 48,0 КГц
Частота кадров : 31,250 кадров/сек (1536 spf)
Метод сжатия : С потерями
Размер потока : 236 Мбайт (4%)
Заголовок : профессиональный одноголосый, Антон Киреев по переводу Алексея Матвеева
Язык : Russian
Default : Нет
Forced : Нет

Аудио #4
Идентификатор : 5
Формат : DTS
Формат/Информация : Digital Theater Systems
Режим : 16
Параметр Endianness формата : Big
Идентификатор кодека : A_DTS
Продолжительность : 1 ч. 25 м.
Вид битрейта : Постоянный
Битрейт : 1509 Кбит/сек
Каналы : 6 каналов
Расположение каналов : Front: L C R, Side: L R, LFE
Частота : 48,0 КГц
Частота кадров : 93,750 кадра/сек (512 spf)
Битовая глубина : 16 бит
Метод сжатия : С потерями
Размер потока : 928 Мбайт (16%)
Заголовок : Original
Язык : English
Default : Нет
Forced : Нет

Текст #1
Идентификатор : 6
Формат : UTF-8
Идентификатор кодека : S_TEXT/UTF8
Идентификатор кодека/Информация : UTF-8 Plain Text
Продолжительность : 1 ч. 21 м.
Битрейт : 55 бит/сек
Count of elements : 705
Размер потока : 33,3 Кбайт (0%)
Заголовок : русский
Язык : Russian
Default : Нет
Forced : Нет

Текст #2
Идентификатор : 7
Формат : UTF-8
Идентификатор кодека : S_TEXT/UTF8
Идентификатор кодека/Информация : UTF-8 Plain Text
Продолжительность : 1 ч. 22 м.
Битрейт : 43 бит/сек
Count of elements : 794
Размер потока : 26,3 Кбайт (0%)
Заголовок : английский
Язык : English
Default : Нет
Forced : Нет
pb.wtf



Скачать Должник через торрент http://s020.radikal.ru/i718/1605/f4/8616160a98cb.jpg Скачать фильм Должник через торрент бесплантно в хорошем качестве Описание: Когда 19-летний Адам, разбив машину отчима, соглашается на работу, предложенную им, то обрекает себя на путешествие в кошмарный ... 10 10 2
Info! Золотая раздача, скачанное не засчитывается.
Торрент: Зарегистрирован [2016-05-01 11:06] · скачан: 179 раз
Статус: √ проверено
Размер: 5.83 GB
Как cкачать? Как скачать Должник через торрент | qTorrent

% Раздел Тема Автор DL S | L
Фильмы 2012 [ 1.37 GB ] Должник / The Liability [2012 HDRip многоголосый ] кэп Скачать
1 | 0
Фильмы 2012 [ 2.18 GB ] Должник / The Liability [2012 BDRip-AVC] MVO [Кинолюкс] potroks Скачать
1 | 0
Фильмы [HD 720p, 1080p] (Хороший звук DUB, MVO) [ 2.59 GB ] Должник / The Liability [2012 BDRip 720p by msltel] MVO DVO VO msltel Скачать
1 | 0
Фильмы 2012 [ 1.37 GB ] Должник / The Liability [2012 WEB-DLRip [НТВ Ворон Скачать
1 | 0

28-11-2019 20:33  

Отключить всю рекламу на сайте

    Дорогой пользователь! Огромная просьба, поблагодарите релизера, оцените раздачу и оставьте свои комментарий, если Вы скачали Должник через торрент бесплатно! Внесите свою лепту в развитие PiratBit!
    Комментировать посты могут только пользователи прошедшие не сложную регистрацию
    Показать сообщения:    

    Должник через торрент
    Скачать бесплатно Должник
    Должник скачать торрент
    Должник смотреть онлайн
    Cкачать фильм Должник бесплатно
    Должник скачать торрент в хорошем качестве
    Должник смотреть онлайн бесплатно в хорошем качестве


    Вы не можете начинать темы
    Вы не можете отвечать на сообщения
    Вы не можете редактировать свои сообщения
    Вы не можете удалять свои сообщения
    Вы не можете голосовать в опросах
    Вы не можете прикреплять файлы к сообщениям
    Вы можете скачивать файлы