Ссылка на приватное зеркало всего за 1$. Внимание количество ограничено!!!

iTunes

iTunes

iTunes

1

iTunes

iTunes

iTunes

iTunes

iTunes

30
pack

$ от Little Big

ВАЖНО

!!Акция!!

Alien_RageХит недели

RePack

Resident Evil 21

ИГРА 18+

pack

RePack

jed

!!Акция!!

Alien_Rage

RePack

fifa19

RePack

Assassins Creed: Odyssey

RePack

NEED FOR SPEED™ PAYBACK

4 сезон

9 сезон

Бесстыжие 9 сезон

Все сериалы

все сериалы на PB.wtf

RePack

FAR CRY 5
  

Три девятки / Triple 9 [2016 г., Криминал, драма, триллер, WEB-DL (720p), Дубляж (iTunes)] pb.wtf

Три девятки через торрент pb.wtf

Размер: 3.97 GB | Добавлен: 4 года 2 мес. назад | Торрент скачан:285 раз
Скачать  

01-05-2016 11:29 Три девятки Скачать торрент  

Три девятки / Triple 9
Год выпуска: 2016
Страна: США
Жанр: Криминал, драма, триллер
Продолжительность: 01:50:36
Перевод: Дубляж (iTunes)+ Оригинал
Режиссер: Джон Хиллкоут

В ролях: Аарон Пол, Кейт Уинслет, Вуди Харрельсон, Кейси Аффлек, Энтони Маки, Чиветель Эджиофор, Галь Гадот, Норман Ридус

Описание: Группа коррумпированных копов задумывает крупное ограбление. Они понимают: ради алиби им будет нужно убрать кого-то из своих…

Качество: WEB-DL (720p)
Формат: MKV
Видео кодек: AVC
Аудио кодек: AC3
Видео: MPEG-4 AVC, 1280x534, 4399 Кбит/с, 25.000 кадра/сек
Аудио#1: AC3, 6 ch, 384 kbps (Rus) 48.0 KHz Дублированный (iTunes)
Аудио#2: AC3, 2 ch, 256 kbps (Eng) 48.0 KHz Оригинал
Тип потока: Видео
Длительность: 01:50:34
Кодек: AVC
Кодек/описание: Advanced Video Codec
Кодек/профиль: High@L4.1
Кодек/ID: V_MPEG4/ISO/AVC
Кодек/CABAC: Yes
Кодек/ReFrames: 4 frames
Размеры изображения: 1280 x 534 (2.40:1)
Частота кадров: 25.000 fps
Частота кадров/тип: Constant
Размер потока: 3.40 GiB (86%)
Битрейт: 4 399 Kbps
Цветовое пространство: YUV
Тип развёртки: Progressive
Колориметрия: 4:2:0
Глубина: 8 bits
:
Тип потока: Звук #1
Длительность: 01:50:34.400
Кодек: AC-3
Кодек/описание: Audio Coding 3
Кодек/ID: A_AC3
Частота дискретизации: 48.0 KHz
Каналов: 6 channels
Битрейт: 384 Kbps
Битрейт/тип: Constant
Размер потока: 304 MiB (7%)
Глубина: 16 bits
Метод сжатия: Lossy
:
Тип потока: Звук #2
Язык: English
Длительность: 01:50:34.400
Кодек: AC-3
Кодек/описание: Audio Coding 3
Кодек/ID: A_AC3
Частота дискретизации: 48.0 KHz
Каналов: 2 channels
Битрейт: 256 Kbps
Битрейт/тип: Constant
Размер потока: 202 MiB (5%)
Глубина: 16 bits
Метод сжатия: Lossy

pb.wtf



Скачать Три девятки через торрент http://pic1.kartinco.top/images/10/kjaeo.jpg Скачать фильм Три девятки через торрент бесплантно в хорошем качестве Описание: Группа коррумпированных копов задумывает крупное ограбление. Они понимают: ради алиби им будет нужно убрать кого-то из ... 10 10 7
Торрент: Зарегистрирован [2016-05-01 11:29] · скачан: 285 раз
Статус: √ проверено
Размер: 3.97 GB
Как cкачать? Как скачать Три девятки через торрент | qTorrent

% Раздел Тема Автор DL S | L
Фильмы [HD 720p, 1080p] (Хороший звук DUB, MVO) [ 12.37 GB ] Три девятки / Triple 9 [2016 BDRip 1080p] DUB [ R5] bober100 Скачать
1 | 0
Фильмы [HD 720p, 1080p] (Хороший звук DUB, MVO) [ 10.19 GB ] Три девятки / Triple 9 [2016 BDRip 720p] DUB [ R5] bober100 Скачать
1 | 0
Фильмы 2016 [DVDrip, WEB-DLRip, HDrip] (DUB, MVO) [ 2.18 GB ] Три девятки / Triple 9 [2016 HDRip "BD RUS"] coc900 Скачать
1 | 0
Фильмы (Blu-ray, BD-Remux, HDDVD) [ 18.45 GB ] Три девятки / Triple 9 [2016 BD Remux 1080p] DUB [] bober100 Скачать
1 | 0
Фильмы (WEB-DL 720p, 1080p) [ 4.45 GB ] Три девятки / Triple 9 [2016 WEB-DL 1080p ] MeZZAPT Скачать
1 | 0
Фильмы 2016 [DVDrip, WEB-DLRip, HDrip] (DUB, MVO) [ 1.46 GB ] Три девятки / Triple 9 [2016 BDRip] - [] Twi7ter Скачать
2 | 0
Фильмы (DVD фильмы) [ 7.1 GB ] Три девятки / Triple 9 [2016 DVD9] R5 voovaz Скачать
1 | 0

28-11-2019 20:33  

Отключить всю рекламу на сайте

01-05-2016 15:48 Три девятки Скачать торрент  

О! Здесь еще одному голове плохо! А вот зачем так писать - "ThrEE.DevYtK1.2O16.D.WEB-DL.72OP" ?

Написать хотя бы Triple.9.2016.D.WEB-DL.720P - религия не позволяет или детство в #опе все играет, отсталость какая-то?pb.wtf



01-05-2016 15:58 Три девятки Скачать торрент  

explouder, чтобы боты правообладателей не нашли раздачу.pb.wtf



03-05-2016 14:45 Три девятки Скачать торрент  

В начале фильма, фото с места убийства немцова.
Кино неоднозначное, 6/10pb.wtf



    Дорогой пользователь! Огромная просьба, поблагодарите релизера, оцените раздачу и оставьте свои комментарий, если Вы скачали Три девятки через торрент бесплатно! Внесите свою лепту в развитие PiratBit!
    Комментировать посты могут только пользователи прошедшие не сложную регистрацию
    Показать сообщения:    

    Три девятки через торрент
    Скачать бесплатно Три девятки
    Три девятки скачать торрент
    Три девятки смотреть онлайн
    Cкачать фильм Три девятки бесплатно
    Три девятки скачать торрент в хорошем качестве
    Три девятки смотреть онлайн бесплатно в хорошем качестве


    Вы не можете начинать темы
    Вы не можете отвечать на сообщения
    Вы не можете редактировать свои сообщения
    Вы не можете удалять свои сообщения
    Вы не можете голосовать в опросах
    Вы не можете прикреплять файлы к сообщениям
    Вы можете скачивать файлы