Ссылка на приватное зеркало нашего сайта всего за 1$. Внимание количество ограничено!!!

2 сезон

iTunes

1 сезон

1

iTunes

iTunes

iTunes

1 сезон

RePack

30

ИГРА 18+

pack

ВАЖНО

!!Акция!!

Alien_RageХит недели

RePack

MK11
pack

Забери бонус

RePack

jed

!!Акция!!

Alien_Rage

RePack

fifa19

RePack

Assassins Creed: Odyssey

RePack

NEED FOR SPEED™ PAYBACK

4 сезон

9 сезон

Бесстыжие 9 сезон

Все сериалы

все сериалы на PB.wtf

RePack

FAR CRY 5
  

Безымянная - одна женщина в Берлине / Anonyma - Eine Frau in Berlin (Макс Фэрбербек) [2008, драма, военный, история, BDRip 720p by msltel] pb.wtf

Безымянная - одна женщина в Берлине через торрент pb.wtf

Размер: 4.67 GB | Добавлен: 4 года 5 мес. назад | Торрент скачан:108 раз
Скачать  

03-05-2016 07:56 Безымянная - одна женщина в Берлине Скачать торрент  

Название: Безымянная - одна женщина в Берлине
Оригинальное название: Anonyma – Eine Frau in Berlin
Год выпуска: 2008
Страна: Германия, Польша
Жанр: драма, военный, история
Продолжительность: 02:11:22

Режиссёр: Макс Фэрбербек

В ролях: Нина Хосс, Евгений Сидихин, Ирм Херманн, Рюдигер Фоглер, Ульрике Крумбигель, Рольф Канис, Йордис Трибель, Роман Грибков, Юлиане Кёлер, Виктор Жалсанов, Александра Куликова, Олег Чернов, Александр Самойленко, Максим Коновалов, Игорь Яцко, Константин Воробьёв

Описание: Фильм основан на анонимных дневниках немецкой женщины, которая вместе с другими скрывалась в полуразрушенном доме, когда Красная Армия вошла в Берлин. Чтобы избежать надругательств солдат Красной Армии, она ищет солдата, который мог бы её защитить. Однако ситуация осложняется, когда между ними вспыхивает чувство, очень похожее на любовь... Это - большое кино. Кино, которое требует от зрителя восприятия не только головой, но и сердцем. Всё, что является свидетельством человеческого духа, не имеет границ и национальности...



Качество: BDRip 720p Сравнение с исходником
Формат: MKV
Видео: MPEG-4 AVC, 4642 Kбит/с, 1280x546, 24 кадра/с
Аудио: русский, немецкий, AC3, 448 kbps, 6 ch, 48 kHz
Субтитры 1: русские (на немецкую речь)
Субтитры 2: английские
Общее
Уникальный идентификатор : 207585731697889841986160385379476396393 (0x9C2B8EC37D98F91FB4FA2B58B6A35969)
Полное имя : D:\Video\Безымянная.2008.BDRip.720p.mkv
Формат : Matroska
Версия формата : Version 4 / Version 2
Размер файла : 4,67 Гбайт
Продолжительность : 2 ч. 11 м.
Общий поток : 5092 Кбит/сек
Дата кодирования : UTC 2016-05-03 03:38:13
Программа кодирования : mkvmerge v8.2.0 ('World of Adventure') 64bit
Библиотека кодирования : libebml v1.3.1 + libmatroska v1.4.2

Видео
Идентификатор : 1
Формат : AVC
Формат/Информация : Advanced Video Codec
Профиль формата : High@L4.1
Параметр CABAC формата : Да
Параметр ReFrames формата : 9 кадров
Идентификатор кодека : V_MPEG4/ISO/AVC
Продолжительность : 2 ч. 11 м.
Битрейт : 4642 Кбит/сек
Ширина : 1280 пикселей
Высота : 546 пикселей
Соотношение сторон : 2,35:1
Режим частоты кадров : Постоянный
Частота кадров : 24,000 кадра/сек
Цветовое пространство : YUV
Субдискретизация насыщенности : 4:2:0
Битовая глубина : 8 бит
Тип развёртки : Прогрессивная
Бит/(Пиксели*Кадры) : 0.277
Размер потока : 4,26 Гбайт (91%)
Библиотека кодирования : x264 core 146 r2538 121396c
Настройки программы : cabac=1 / ref=9 / deblock=1:-1:-1 / analyse=0x3:0x113 / me=umh / subme=10 / psy=1 / psy_rd=1.00:0.15 / mixed_ref=1 / me_range=32 / chroma_me=1 / trellis=2 / 8x8dct=1 / cqm=0 / deadzone=21,11 / fast_pskip=1 / chroma_qp_offset=-3 / threads=6 / lookahead_threads=1 / sliced_threads=0 / nr=0 / decimate=1 / interlaced=0 / bluray_compat=0 / constrained_intra=0 / bframes=10 / b_pyramid=2 / b_adapt=2 / b_bias=0 / direct=1 / weightb=1 / open_gop=0 / weightp=2 / keyint=230 / keyint_min=23 / scenecut=40 / intra_refresh=0 / rc_lookahead=40 / rc=crf / mbtree=0 / crf=19.0 / qcomp=0.60 / qpmin=0 / qpmax=69 / qpstep=4 / vbv_maxrate=40000 / vbv_bufsize=50000 / crf_max=0.0 / nal_hrd=none / filler=0 / ip_ratio=1.40 / pb_ratio=1.30 / aq=1:1.00
Язык : German
Default : Да
Forced : Нет

Аудио
Идентификатор : 2
Формат : AC-3
Формат/Информация : Audio Coding 3
Расширение режима : CM (complete main)
Параметр Endianness формата : Big
Идентификатор кодека : A_AC3
Продолжительность : 2 ч. 11 м.
Вид битрейта : Постоянный
Битрейт : 448 Кбит/сек
Каналы : 6 каналов
Расположение каналов : Front: L C R, Side: L R, LFE
Частота : 48,0 КГц
Частота кадров : 31,250 кадров/сек (1536 spf)
Метод сжатия : С потерями
Размер потока : 421 Мбайт (9%)
Заголовок : немецкий, русский
Default : Да
Forced : Нет

Текст #1
Идентификатор : 3
Формат : UTF-8
Идентификатор кодека : S_TEXT/UTF8
Идентификатор кодека/Информация : UTF-8 Plain Text
Продолжительность : 2 ч. 5 м.
Битрейт : 33 бит/сек
Count of elements : 599
Размер потока : 30,9 Кбайт (0%)
Заголовок : русский
Язык : Russian
Default : Нет
Forced : Нет

Текст #2
Идентификатор : 4
Формат : UTF-8
Идентификатор кодека : S_TEXT/UTF8
Идентификатор кодека/Информация : UTF-8 Plain Text
Продолжительность : 2 ч. 4 м.
Битрейт : 26 бит/сек
Count of elements : 1022
Размер потока : 24,7 Кбайт (0%)
Заголовок : английский
Язык : English
Default : Нет
Forced : Нет
pb.wtf



Скачать Безымянная - одна женщина в Берлине через торрент http://s020.radikal.ru/i701/1605/7b/c3736e5e8fe1.jpg Скачать фильм Безымянная - одна женщина в Берлине через торрент бесплантно в хорошем качестве Описание: Фильм основан на анонимных дневниках немецкой женщины, которая вместе с другими скрывалась в полуразрушенном доме, когда Красная ... 5.5 10 6
Info! Золотая раздача, скачанное не засчитывается.
Торрент: Зарегистрирован [2016-05-03 07:56] · скачан: 108 раз
Статус: √ проверено
Размер: 4.67 GB
Как cкачать? Как скачать Безымянная - одна женщина в Берлине через торрент | qTorrent

% Раздел Тема Автор DL S | L
Фильмы 2006-2008 [ 2.18 GB ] Безымянная - одна женщина в Берлине / Anonyma – Eine Frau in Berlin [2008 военный история BDRip-AVC] koenig Скачать
1 | 0
Фильмы [HD 720p, 1080p] (Хороший звук DUB, MVO) [ 13.21 GB ] Безымянная - одна женщина в Берлине / Anonyma - Eine Frau in Berlin [2008 военный история BDRip 1080p by msltel] msltel Скачать
1 | 0
Фильмы 2006-2008 [ 2.18 GB ] Безымянная - одна женщина в Берлине / Anonyma - Eine Frau in Berlin [2008 военный ВDRip] kycher1972 Скачать
1 | 0
Фильмы 2006-2008 [ 1.37 GB ] Безымянная - одна женщина в Берлине / Anonyma - Eine Frau in Berlin [2008 военный лицензияDVDRip] Роман 81 Скачать
1 | 0

28-11-2019 20:33  

Отключить всю рекламу на сайте

03-05-2016 10:46 Безымянная - одна женщина в Берлине Скачать торрент  

Польша, Германия. Анонимные дневники. Ложь и провокация,pb.wtf



03-05-2016 11:28 Безымянная - одна женщина в Берлине Скачать торрент  

dok1963 писал(а):

Польша, Германия. Анонимные дневники. Ложь и провокация,

pb.wtf



03-05-2016 14:21 Безымянная - одна женщина в Берлине Скачать торрент  

Лучше бы по дневнику Тани Савичевой кино сняли.pb.wtf



03-05-2016 15:03 Безымянная - одна женщина в Берлине Скачать торрент  

Кроме войны и тупых сериалов про нариков ,убийц и зажратых ушлепков,мусоров -ниче не могут снятть =(((pb.wtf



05-05-2016 12:48 Безымянная - одна женщина в Берлине Скачать торрент  

и не стыдно же русским актёрам сниматься вот в таком вот кино... ради денег наплевали на своих дедов, на их пролитую кровь за этот сраный мир... твари, а не люди...pb.wtf



    Дорогой пользователь! Огромная просьба, поблагодарите релизера, оцените раздачу и оставьте свои комментарий, если Вы скачали Безымянная - одна женщина в Берлине через торрент бесплатно! Внесите свою лепту в развитие PiratBit!
    Комментировать посты могут только пользователи прошедшие не сложную регистрацию
    Показать сообщения:    

    Безымянная - одна женщина в Берлине через торрент
    Скачать бесплатно Безымянная - одна женщина в Берлине
    Безымянная - одна женщина в Берлине скачать торрент
    Безымянная - одна женщина в Берлине смотреть онлайн
    Cкачать фильм Безымянная - одна женщина в Берлине бесплатно
    Безымянная - одна женщина в Берлине скачать торрент в хорошем качестве
    Безымянная - одна женщина в Берлине смотреть онлайн бесплатно в хорошем качестве


    Вы не можете начинать темы
    Вы не можете отвечать на сообщения
    Вы не можете редактировать свои сообщения
    Вы не можете удалять свои сообщения
    Вы не можете голосовать в опросах
    Вы не можете прикреплять файлы к сообщениям
    Вы можете скачивать файлы