Ссылка на приватное зеркало всего за 1$. Внимание количество ограничено!!!

iTunes

iTunes

iTunes

1

iTunes

iTunes

iTunes

iTunes

iTunes

30
pack

$ от Little Big

ВАЖНО

!!Акция!!

Alien_RageХит недели

RePack

Resident Evil 21

ИГРА 18+

pack

RePack

jed

!!Акция!!

Alien_Rage

RePack

fifa19

RePack

Assassins Creed: Odyssey

RePack

NEED FOR SPEED™ PAYBACK

4 сезон

9 сезон

Бесстыжие 9 сезон

Все сериалы

все сериалы на PB.wtf

RePack

FAR CRY 5
  

Каждому своё / Everybody Wants Some!! (Ричард Линклейтер) [2016, комедия, WEB-DL 1080p ] Дублированный [iTunes] pb.wtf

Каждому своё через торрент pb.wtf

Размер: 4.29 GB | Добавлен: 4 года 2 мес. назад | Торрент скачан:872 раза
Скачать  

03-05-2016 08:56 Каждому своё Скачать торрент  

Каждому своё / Everybody Wants Some!!«Here for a Good Time Not a Long Time»
Год выпуска » 2016
Страна » США
Жанр » комедия
Продолжительность » 01:51:50
Перевод » Дублированный [iTunes]
Субтитры » Отсутствуют

В ролях
»Блейк Дженнер / Blake Jenner (Jake), Джастон Стрит / Juston Street (Jay), Райан Гузман / Ryan Guzman (Roper), Тайлер Хэклин / Tyler Hoechlin (McReynolds), Уайатт Расселл / Wyatt Russell (Willoughby), Глен Пауэлл / Glen Powell (Finnegan), Темпл Бэйкер / Temple Baker (Plummer), Дж. Куинтон Джонсон / J. Quinton Johnson (Dale)


Режиссёр
» Ричард Линклейтер

» Сексуальная революция и любовь, пьяные тусовки и травка, брендовые шмотки и топовая музыка… Первокурсник Джейк получает комнату в общежитии колледжа и погружается в порочный водоворот беззаботной жизни Америки 80-х. Он впервые познает вкус свободы и взрослой жизни, пока даже не задумываясь о последствиях.

• Качество » WEB-DL 1080p
• Формат » MKV
• Видео кодек » AVC
• Аудио кодек » AC3
• Видео »1920x1036 (1.85:1), 25.000 fps, AVC, 5 004 Kbps
• Аудио » Русский (AC-3/ 6 ch / 384 kbps / 48,0 КГц / 16 bit )




Бюджет: $10 000 000
Сборы в США: $2 358 247
Сборы в России: $55 419
Зрители: Россия 14.6 тыс.
Премьера (мир): 11 марта 2016
Премьера (РФ): 7 апреля 2016
Релиз на DVD: 18 июля 2016, «Парадиз Медиа»
Рейтинг MPAA: Лицам до 17 лет обязательно присутствие взрослого
General
Unique ID : 182785957067619135191809183615124368270 (0x89834B78DD649D4DB7A175D87E89EB8E)
Complete name : KaGDoMu.Svoio.2O16.D.WEB-DL.1080p.mkv
Format : Matroska
Format version : Version 2
File size : 4.29 GiB
Duration : 1h 51mn
Overall bit rate : 5 497 Kbps
Encoded date : UTC 2016-04-30 00:12:31
Writing application : mkvmerge v8.3.0 ('Over the Horizon') 64bit
Writing library : libebml v1.3.1 + libmatroska v1.4.2
DURATION : 01:51:50.784000000
NUMBER_OF_FRAMES : 209712
NUMBER_OF_BYTES : 322117632
_STATISTICS_WRITING_APP : mkvmerge v8.3.0 ('Over the Horizon') 64bit
_STATISTICS_WRITING_DATE_UTC : 2016-04-30 00:12:31
_STATISTICS_TAGS : BPS DURATION NUMBER_OF_FRAMES NUMBER_OF_BYTES

Video
ID : 1
Format : AVC
Format/Info : Advanced Video Codec
Format profile : High@L4.0
Format settings, CABAC : Yes
Format settings, ReFrames : 4 frames
Codec ID : V_MPEG4/ISO/AVC
Duration : 1h 51mn
Bit rate : 5 004 Kbps
Width : 1 920 pixels
Height : 1 036 pixels
Display aspect ratio : 1.85:1
Frame rate mode : Constant
Frame rate : 25.000 fps
Color space : YUV
Chroma subsampling : 4:2:0
Bit depth : 8 bits
Scan type : Progressive
Bits/(Pixel*Frame) : 0.101
Stream size : 3.91 GiB (91%)
Language : Russian
Default : Yes
Forced : No

Audio
ID : 2
Format : AC-3
Format/Info : Audio Coding 3
Mode extension : CM (complete main)
Format settings, Endianness : Big
Codec ID : A_AC3
Duration : 1h 51mn
Bit rate mode : Constant
Bit rate : 384 Kbps
Channel(s) : 6 channels
Channel positions : Front: L C R, Side: L R, LFE
Sampling rate : 48.0 KHz
Bit depth : 16 bits
Compression mode : Lossy
Stream size : 307 MiB (7%)
Default : Yes
Forced : No[/code]
скриншот   скриншот   скриншот   скриншот   скриншот   скриншот  
pb.wtf



Скачать Каждому своё через торрент http://i74.fastpic.ru/big/2015/1218/b5/c39d072d168dbcde95d1a17f670689b5.gif Скачать фильм Каждому своё через торрент бесплантно в хорошем качестве В ролях »Блейк Дженнер / Blake Jenner (Jake), Джастон Стрит / Juston Street (Jay), Райан Гузман / Ryan Guzman (Roper), Тайлер Хэклин / ... 8.8 10 28
Info! Золотая раздача, скачанное не засчитывается.
Торрент: Зарегистрирован [2016-05-03 08:56] · скачан: 872 раз
Статус: √ проверено
Размер: 4.29 GB
Как cкачать? Как скачать Каждому своё через торрент | qTorrent

% Раздел Тема Автор DL S | L
Релизы по Парсеру [Игры, Сериалы и Фильмы и другое...] [ 1.45 GB ] Каждому своё / Everybody Wants Some HDRip / Ворон Скачать
1 | 0
Релизы по Парсеру [Игры, Сериалы и Фильмы и другое...] [ 10.6 GB ] Каждому своё / Everybody Wants Some! BDRip 1080p / Ворон Скачать
1 | 0
Фильмы 2016 [DVDrip, WEB-DLRip, HDrip] (DUB, MVO) [ 2.05 GB ] Каждому своё / Everybody Wants Some!! [2016 WEB-DLRip ] $-DRON-$ Скачать
1 | 0
Фильмы 2016 [DVDrip, WEB-DLRip, HDrip] (DUB, MVO) [ 2.05 GB ] Каждому своё / Everybody Wants Some!! [2016 WEB DLRip-AVC] $-DRON-$ Скачать
1 | 0
Фильмы 2016 [DVDrip, WEB-DLRip, HDrip] (DUB, MVO) [ 1.37 GB ] Каждому своё / Everybody Wants Some!! [2016 WEB-DLRip ] $-DRON-$ Скачать
2 | 0
Фильмы 2016 [DVDrip, WEB-DLRip, HDrip] (DUB, MVO) [ 758 MB ] Каждому своё / Everybody Wants Some!! [2016 WEB-DLRip by _Один_777] Dub () Один 777 Скачать
1 | 0

28-11-2019 20:33  

Отключить всю рекламу на сайте

04-05-2016 13:37 Каждому своё Скачать торрент  

хороший фильм. Атмосферныйpb.wtf



06-05-2016 23:09 Каждому своё Скачать торрент  

Странно. На раздаче рейтинг этого фильма на КиноПоиске показывает 7.01. Заходишь на КиноПоиск на страницу этого фильм, там написано 6.56.pb.wtf



08-05-2016 11:03 Каждому своё Скачать торрент  

да там больше 5 балов не дашь. фильм - ни о чем. начало вроде и радует, а дальше ни какого развития сюжета.
Фильм - "американский" пирог с цензурой в 80е.pb.wtf



15-05-2016 10:16 Каждому своё Скачать торрент  

Спасибо) обязательно посмотрюpb.wtf



    Дорогой пользователь! Огромная просьба, поблагодарите релизера, оцените раздачу и оставьте свои комментарий, если Вы скачали Каждому своё через торрент бесплатно! Внесите свою лепту в развитие PiratBit!
    Комментировать посты могут только пользователи прошедшие не сложную регистрацию
    Показать сообщения:    

    Каждому своё через торрент
    Скачать бесплатно Каждому своё
    Каждому своё скачать торрент
    Каждому своё смотреть онлайн
    Cкачать фильм Каждому своё бесплатно
    Каждому своё скачать торрент в хорошем качестве
    Каждому своё смотреть онлайн бесплатно в хорошем качестве


    Вы не можете начинать темы
    Вы не можете отвечать на сообщения
    Вы не можете редактировать свои сообщения
    Вы не можете удалять свои сообщения
    Вы не можете голосовать в опросах
    Вы не можете прикреплять файлы к сообщениям
    Вы можете скачивать файлы