Ссылка на приватное зеркало всего за 1$. Внимание количество ограничено!!!

iTunes

iTunes

iTunes

1

iTunes

iTunes

iTunes

iTunes

iTunes

30
pack

$ от Little Big

ВАЖНО

!!Акция!!

Alien_RageХит недели

RePack

Resident Evil 21

ИГРА 18+

pack

RePack

jed

!!Акция!!

Alien_Rage

RePack

fifa19

RePack

Assassins Creed: Odyssey

RePack

NEED FOR SPEED™ PAYBACK

4 сезон

9 сезон

Бесстыжие 9 сезон

Все сериалы

все сериалы на PB.wtf

RePack

FAR CRY 5
  

Римские свидания / All Roads Lead to Rome (Элла Лемхаген) [2015 г., Комедия, WEB-DL 720p] DUB [iTunes] pb.wtf

Римские свидания через торрент pb.wtf

Размер: 3.09 GB | Добавлен: 4 года 2 мес. назад | Торрент скачан:107 раз
Скачать  

03-05-2016 11:05 Римские свидания Скачать торрент  

«Флирт, любовь и секс в Вечном городе!»
Год выпуска » 2015
Страна » Италия, США
Жанр » Комедия
Продолжительность » 01:31:26
Перевод » Дублированный [iTunes]
Субтитры » английские

В ролях
» Сара Джессика Паркер, Рози Дэй, Рауль Бова, Клаудия Кардинале, Пас Вега, Кьяра Бассерманн, Марко Бонини, Джанклаудио Каретта, Барни Харрис, Паола Лавини

Режиссёр
» Элла Лемхаген

» У Мэгги все спланировано для идеального отпуска - солнце Рима и море Тосканы. Вот только ее 16-летняя дочь Саммер мечтает улететь назад в Штаты к своему бойфренду, а Мэгги случайно встречает свою первую любовь - сердцееда Луку и его взбалмошную мамашу, которая тоже норовит сбежать из дома к тайному возлюбленному. Расслабленный отдых оборачивается головокружительной погоней на красной альфа-ромео за беглянками-родственницами и... собственным счастьем.

• Качество » WEB-DL 720p
• Формат » MKV
• Видео кодек » AVC
• Аудио кодек » AC3
• Видео » 1280x532 (2.40:1), 23.976 fps, AVC, 3 966 Kbps
• Аудио » Русский (AC-3 / 6 ch / 384 kbps /16 bit / 48,0 КГц )
• Аудио » Английский (AC-3 / 6 ch / 384 kbps / 48,0 КГц / 16 bit)


Сборы в России: $114 812
Дата мировой премьеры: 16 декабря 2015
Дата российской премьеры: 4 февраля 2016, «Экспонента»
General
Unique ID : 189787958852081681099660829699852945251 (0x8EC7D4D05255BC6DADBCEB00E10F4763)
Complete name : RimSlie.Svidanki.2O15.D.WEB-DL.720p.mkv
Format : Matroska
Format version : Version 2
File size : 3.09 GiB
Duration : 1h 31mn
Overall bit rate : 4 830 Kbps
Encoded date : UTC 2016-05-02 18:55:21
Writing application : mkvmerge v8.3.0 ('Over the Horizon') 64bit
Writing library : libebml v1.3.1 + libmatroska v1.4.2
DURATION : 01:31:26.400000000
NUMBER_OF_FRAMES : 171450
NUMBER_OF_BYTES : 263347200
_STATISTICS_WRITING_APP : mkvmerge v8.3.0 ('Over the Horizon') 64bit
_STATISTICS_WRITING_DATE_UTC : 2016-05-02 18:55:21
_STATISTICS_TAGS : BPS DURATION NUMBER_OF_FRAMES NUMBER_OF_BYTES

Video
ID : 1
Format : AVC
Format/Info : Advanced Video Codec
Format profile : Main@L3.1
Format settings, CABAC : No
Format settings, ReFrames : 2 frames
Codec ID : V_MPEG4/ISO/AVC
Duration : 1h 31mn
Bit rate : 3 966 Kbps
Width : 1 280 pixels
Height : 532 pixels
Display aspect ratio : 2.40:1
Frame rate mode : Constant
Frame rate : 23.976 fps
Color space : YUV
Chroma subsampling : 4:2:0
Bit depth : 8 bits
Scan type : Progressive
Bits/(Pixel*Frame) : 0.243
Stream size : 2.53 GiB (82%)
Language : English
Default : Yes
Forced : No
Color primaries : BT.709
Transfer characteristics : BT.709
Matrix coefficients : BT.709

Audio #1
ID : 2
Format : AC-3
Format/Info : Audio Coding 3
Mode extension : CM (complete main)
Format settings, Endianness : Big
Codec ID : A_AC3
Duration : 1h 31mn
Bit rate mode : Constant
Bit rate : 384 Kbps
Channel(s) : 6 channels
Channel positions : Front: L C R, Side: L R, LFE
Sampling rate : 48.0 KHz
Bit depth : 16 bits
Compression mode : Lossy
Stream size : 251 MiB (8%)
Language : Russian
Default : Yes
Forced : Yes

Audio #2
ID : 3
Format : AC-3
Format/Info : Audio Coding 3
Mode extension : CM (complete main)
Format settings, Endianness : Big
Codec ID : A_AC3
Duration : 1h 31mn
Bit rate mode : Constant
Bit rate : 384 Kbps
Channel(s) : 6 channels
Channel positions : Front: L C R, Side: L R, LFE
Sampling rate : 48.0 KHz
Bit depth : 16 bits
Compression mode : Lossy
Stream size : 251 MiB (8%)
Language : English
Default : No
Forced : No

Text
ID : 4
Format : UTF-8
Codec ID : S_TEXT/UTF8
Codec ID/Info : UTF-8 Plain Text
Language : English
Default : No
Forced : No

Menu
00:00:00.000 : en:Chapter 1
00:07:43.713 : en:Chapter 2
00:15:54.578 : en:Chapter 3
00:23:33.286 : en:Chapter 4
00:34:30.234 : en:Chapter 5
00:44:17.988 : en:Chapter 6
00:53:06.349 : en:Chapter 7
01:03:29.513 : en:Chapter 8
01:12:11.076 : en:Chapter 9
01:19:46.948 : en:Chapter 10
01:26:04.492 : en:Chapter 11
[/code]
скриншот   скриншот   скриншот   скриншот   скриншот   скриншот   скриншот   скриншот  
pb.wtf



Скачать Римские свидания через торрент http://pic1.kartinco.top/images/10/i4xrd.jpg Скачать фильм Римские свидания через торрент бесплантно в хорошем качестве В ролях » Сара Джессика Паркер, Рози Дэй, Рауль Бова, Клаудия Кардинале, Пас Вега, Кьяра Бассерманн, Марко Бонини, Джанклаудио Каретта, ... 10 10 7
Торрент: Зарегистрирован [2016-05-03 11:05] · скачан: 107 раз
Статус: √ проверено
Размер: 3.09 GB
Как cкачать? Как скачать Римские свидания через торрент | qTorrent

% Раздел Тема Автор DL S | L
Фильмы 2015 [DVDrip, WEB-DLRip, HDrip] [ 1.37 GB ] Римские свидания / All Roads Lead to Rome [2015 WEB-DLRip] $-DRON-$ Скачать
1 | 0

28-11-2019 20:33  

Отключить всю рекламу на сайте

03-05-2016 12:49 Римские свидания Скачать торрент  

Спасибо!!Хоть будет что то посмотреть на выходных.Как же обрыдло это нескончаемое совковое телевещание!!!!pb.wtf



    Дорогой пользователь! Огромная просьба, поблагодарите релизера, оцените раздачу и оставьте свои комментарий, если Вы скачали Римские свидания через торрент бесплатно! Внесите свою лепту в развитие PiratBit!
    Комментировать посты могут только пользователи прошедшие не сложную регистрацию
    Показать сообщения:    

    Римские свидания через торрент
    Скачать бесплатно Римские свидания
    Римские свидания скачать торрент
    Римские свидания смотреть онлайн
    Cкачать фильм Римские свидания бесплатно
    Римские свидания скачать торрент в хорошем качестве
    Римские свидания смотреть онлайн бесплатно в хорошем качестве


    Вы не можете начинать темы
    Вы не можете отвечать на сообщения
    Вы не можете редактировать свои сообщения
    Вы не можете удалять свои сообщения
    Вы не можете голосовать в опросах
    Вы не можете прикреплять файлы к сообщениям
    Вы можете скачивать файлы