Присоединяйтесь к нам в Telegram!, здесь всегда актуальный адрес сайта, оперативная поддержка и многое другое!!

>

5.9

iTunes

7.4

iTunes

9.4

1 сезон

1

7.4

2 сезон

7.2

iTunes

7.3

1 сезон

13

6.1

iTunes

8.3

GOG

30

ULTIMATE

pack

9.9

Лицензия

ВАЖНО

ИГРА 18+

pack

7.3

RePack

MK11

7.7

RePack

jed

7.8

RePack

fifa19

8.5

RePack

RDR2

RePack

NEED FOR SPEED™ PAYBACK

5 сезон

9 сезон

Бесстыжие 9 сезон

Все сериалы

все сериалы на PB.wtf

RePack

FAR CRY 5

Anonymous, добрый вечер, мы катастрофически не успеваем собрать деньги на оплату серверов, помогите нам пожалуйста 5,10,15р., для нас важна любая помощь . В качестве благодарности мы отключим Вам всю рекламу на сайте (укажите свой ник в строку Ваше имя)!

×
  
Magnet ссылка

Ленинград - Сборник видеоклипов [2016 г., Pop, HDTVRip 1080p] pb.wtf

Ленинград - Сборник видеоклипов через торрент pb.wtf

Размер: 1.29 GB | Добавлен: 5 лет 6 мес. назад | Торрент скачан:535 раз
Смотреть онлайн Ленинград - Сборник видеоклипов | Скачать    Ребята, помогите собрать деньги на оплату серверов!!!

03-05-2016 12:46 Ленинград - Сборник видеоклипов Скачать торрент  

Ленинград - Сборник видеоклипов
Год выпуска: 2016
Жанр: Pop
Продолжительность: 00:26:09
Качество:HDTVRip 1080p
Формат: MPEG4
Видео кодек: AVC
Аудио кодек:AAC
Видео: MPEG4 AVC, 1920x1080, 25,000 fps, 8233 kbps
Аудио#1: AAC 48,0 kHz, 2 ch, 256 kbps
1.Ленинград - Бомба.
2.Ленинград - В Питере - Пить
3.Ленинград - Никола
4.Ленинград - Сумка.
5.Ленинград - Экспонат
Общее
Полное имя : Ленинград - Бомба..mp4
Формат : MPEG-4
Профиль формата : Base Media / Version 2
Идентификатор кодека : mp42
Размер файла : 203 Мбайт
Продолжительность : 3 м. 19 с.
Режим общего битрейта : Переменный
Общий поток : 8555 Кбит/сек

Видео
Идентификатор : 1
Формат : AVC
Формат/Информация : Advanced Video Codec
Профиль формата : Main@L4.2
Параметр CABAC формата : Да
Параметр ReFrames формата : 3 кадра
Идентификатор кодека : avc1
Идентификатор кодека/Информация : Advanced Video Coding
Продолжительность : 3 м. 19 с.
Вид битрейта : Переменный
Битрейт : 8233 Кбит/сек
Максимальный битрейт : 40,0 Мбит/сек
Ширина : 1920 пикселей
Высота : 1080 пикселей
Соотношение сторон : 16:9
Режим частоты кадров : Постоянный
Частота кадров : 25,000 кадров/сек
Стандарт вещания : PAL
Цветовое пространство : YUV
Субдискретизация насыщенности : 4:2:0
Битовая глубина : 8 бит
Тип развёртки : Прогрессивная
Бит/(Пиксели*Кадры) : 0.159
Размер потока : 195 Мбайт (96%)
Язык : English
Основные цвета : BT.709
Характеристики трансфера : BT.709
Коэффициенты матрицы : BT.709

Аудио
Идентификатор : 2
Формат : AAC
Формат/Информация : Advanced Audio Codec
Профиль формата : LC
Идентификатор кодека : 40
Продолжительность : 3 м. 18 с.
Продолжительность оригинала : 3 м. 18 с.
Вид битрейта : Переменный
Битрейт : 317 Кбит/сек
Каналы : 2 канала
Расположение каналов : Front: L R
Частота : 48,0 КГц
Метод сжатия : С потерями
Размер потока : 7,53 Мбайт (4%)
Размер потока оригинала : 7,53 Мбайт (4%)
Язык : English
mdhd_Duration : 198997

Общее
Полное имя : Ленинград - В Питере - Пить.mp4
Формат : MPEG-4
Профиль формата : Base Media / Version 2
Идентификатор кодека : mp42
Размер файла : 242 Мбайт
Продолжительность : 7 м. 13 с.
Режим общего битрейта : Переменный
Общий поток : 4680 Кбит/сек

Видео
Идентификатор : 1
Формат : AVC
Формат/Информация : Advanced Video Codec
Профиль формата : High@L4.0
Параметр CABAC формата : Да
Параметр ReFrames формата : 4 кадра
Идентификатор кодека : avc1
Идентификатор кодека/Информация : Advanced Video Coding
Продолжительность : 7 м. 13 с.
Продолжительность оригинала : 7 м. 13 с.
Вид битрейта : Переменный
Битрейт : 4418 Кбит/сек
Максимальный битрейт : 40,0 Мбит/сек
Ширина : 1920 пикселей
Высота : 1080 пикселей
Соотношение сторон : 16:9
Режим частоты кадров : Постоянный
Частота кадров : 25,000 кадров/сек
Цветовое пространство : YUV
Субдискретизация насыщенности : 4:2:0
Битовая глубина : 8 бит
Тип развёртки : Прогрессивная
Бит/(Пиксели*Кадры) : 0.085
Размер потока : 228 Мбайт (94%)
Размер потока оригинала : 228 Мбайт (94%)
Язык : English
mdhd_Duration : 433440
Основные цвета : BT.709
Характеристики трансфера : BT.709
Коэффициенты матрицы : BT.709

Аудио
Идентификатор : 2
Формат : AAC
Формат/Информация : Advanced Audio Codec
Профиль формата : LC
Идентификатор кодека : 40
Продолжительность : 7 м. 13 с.
Продолжительность оригинала : 7 м. 13 с.
Вид битрейта : Переменный
Битрейт : 256 Кбит/сек
Каналы : 2 канала
Расположение каналов : Front: L R
Частота : 48,0 КГц
Метод сжатия : С потерями
Размер потока : 13,2 Мбайт (5%)
Размер потока оригинала : 13,2 Мбайт (5%)
Язык : English
mdhd_Duration : 433471

Общее
Полное имя : Ленинград - Никола.MP4
Формат : MPEG-4
Профиль формата : Base Media / Version 2
Идентификатор кодека : mp42
Размер файла : 279 Мбайт
Продолжительность : 4 м. 41 с.
Режим общего битрейта : Переменный
Общий поток : 8314 Кбит/сек

Видео
Идентификатор : 1
Формат : AVC
Формат/Информация : Advanced Video Codec
Профиль формата : Main@L4.1
Параметр CABAC формата : Нет
Параметр ReFrames формата : 2 кадра
Параметр GOP формата : M=2, N=50
Идентификатор кодека : avc1
Идентификатор кодека/Информация : Advanced Video Coding
Продолжительность : 4 м. 41 с.
Битрейт : 8052 Кбит/сек
Ширина : 1920 пикселей
Высота : 1080 пикселей
Соотношение сторон : 16:9
Режим частоты кадров : Постоянный
Частота кадров : 25,000 кадров/сек
Цветовое пространство : YUV
Субдискретизация насыщенности : 4:2:0
Битовая глубина : 8 бит
Тип развёртки : Прогрессивная
Бит/(Пиксели*Кадры) : 0.155
Размер потока : 270 Мбайт (97%)
Язык : English
Основные цвета : BT.709
Характеристики трансфера : BT.709
Коэффициенты матрицы : BT.709

Аудио
Идентификатор : 2
Формат : AAC
Формат/Информация : Advanced Audio Codec
Профиль формата : LC
Идентификатор кодека : 40
Продолжительность : 4 м. 41 с.
Продолжительность оригинала : 4 м. 41 с.
Вид битрейта : Переменный
Битрейт : 256 Кбит/сек
Каналы : 2 канала
Расположение каналов : Front: L R
Частота : 48,0 КГц
Метод сжатия : С потерями
Размер потока : 8,58 Мбайт (3%)
Размер потока оригинала : 8,59 Мбайт (3%)
Язык : English
mdhd_Duration : 281322

Общее
Полное имя : Ленинград - Сумка..mp4
Формат : MPEG-4
Профиль формата : Base Media / Version 2
Идентификатор кодека : mp42
Размер файла : 378 Мбайт
Продолжительность : 3 м. 57 с.
Режим общего битрейта : Переменный
Общий поток : 13,3 Мбит/сек

Видео
Идентификатор : 1
Формат : AVC
Формат/Информация : Advanced Video Codec
Профиль формата : High@L4.0
Параметр CABAC формата : Да
Параметр ReFrames формата : 3 кадра
Идентификатор кодека : avc1
Идентификатор кодека/Информация : Advanced Video Coding
Продолжительность : 3 м. 57 с.
Продолжительность оригинала : 3 м. 58 с.
Вид битрейта : Переменный
Битрейт : 13,0 Мбит/сек
Максимальный битрейт : 40,0 Мбит/сек
Ширина : 1920 пикселей
Высота : 1080 пикселей
Соотношение сторон : 16:9
Режим частоты кадров : Постоянный
Частота кадров : 25,000 кадров/сек
Стандарт вещания : PAL
Цветовое пространство : YUV
Субдискретизация насыщенности : 4:2:0
Битовая глубина : 8 бит
Тип развёртки : Прогрессивная
Бит/(Пиксели*Кадры) : 0.251
Размер потока : 369 Мбайт (98%)
Размер потока оригинала : 369 Мбайт (98%)
Язык : English
mdhd_Duration : 237960
Основные цвета : BT.709
Характеристики трансфера : BT.709
Коэффициенты матрицы : BT.709

Аудио
Идентификатор : 2
Формат : AAC
Формат/Информация : Advanced Audio Codec
Профиль формата : LC
Идентификатор кодека : 40
Продолжительность : 3 м. 57 с.
Продолжительность оригинала : 3 м. 57 с.
Вид битрейта : Переменный
Битрейт : 317 Кбит/сек
Каналы : 2 канала
Расположение каналов : Front: L R
Частота : 48,0 КГц
Метод сжатия : С потерями
Размер потока : 9,00 Мбайт (2%)
Размер потока оригинала : 9,00 Мбайт (2%)
Язык : English
mdhd_Duration : 237994

Общее
Полное имя : Ленинград - Экспонат.mp4
Формат : MPEG-4
Профиль формата : Base Media / Version 2
Идентификатор кодека : mp42
Размер файла : 222 Мбайт
Продолжительность : 6 м. 57 с.
Режим общего битрейта : Переменный
Общий поток : 4456 Кбит/сек

Видео
Идентификатор : 1
Формат : AVC
Формат/Информация : Advanced Video Codec
Профиль формата : High@L4.0
Параметр CABAC формата : Да
Параметр ReFrames формата : 4 кадра
Идентификатор кодека : avc1
Идентификатор кодека/Информация : Advanced Video Coding
Продолжительность : 6 м. 57 с.
Вид битрейта : Переменный
Битрейт : 4194 Кбит/сек
Максимальный битрейт : 40,0 Мбит/сек
Ширина : 1920 пикселей
Высота : 1080 пикселей
Соотношение сторон : 16:9
Режим частоты кадров : Постоянный
Частота кадров : 25,000 кадров/сек
Цветовое пространство : YUV
Субдискретизация насыщенности : 4:2:0
Битовая глубина : 8 бит
Тип развёртки : Прогрессивная
Бит/(Пиксели*Кадры) : 0.081
Размер потока : 209 Мбайт (94%)
Язык : English
Основные цвета : BT.709
Характеристики трансфера : BT.709
Коэффициенты матрицы : BT.709

Аудио
Идентификатор : 2
Формат : AAC
Формат/Информация : Advanced Audio Codec
Профиль формата : LC
Идентификатор кодека : 40
Продолжительность : 6 м. 57 с.
Продолжительность оригинала : 6 м. 57 с.
Вид битрейта : Переменный
Битрейт : 256 Кбит/сек
Каналы : 2 канала
Расположение каналов : Front: L R
Частота : 48,0 КГц
Метод сжатия : С потерями
Размер потока : 12,7 Мбайт (6%)
Размер потока оригинала : 12,7 Мбайт (6%)
Язык : English
mdhd_Duration : 417706
pb.wtf



Скачать Ленинград - Сборник видеоклипов через торрент http://s020.radikal.ru/i703/1605/49/a14acbc09f04.jpg Скачать, смотреть онлайн Ленинград - Сборник видеоклипов [2016 г., Pop, HDTVRip 1080p] бесплантно в хорошем качестве ТреклистЛенинград - Бомба.Ленинград - В Питере - ПитьЛенинград - НиколаЛенинград - Сумка.Ленинград - ... 8.7 10 20
Info! Серебряная раздача, засчитывается только 50% скачанного.
Торрент: Зарегистрирован [2016-05-03 12:46] · скачан: 535 раз
Статус: √ проверено
Размер: 1.29 GB
Как cкачать? Как скачать Ленинград - Сборник видеоклипов через торрент | UTorrent

% Раздел Тема Автор DL S | L
Клипы [ 4.7 GB ] Ленинград - Сборник видеоклипов [34 шт.] [2017 Рок Панк-Рок Ска Ска-Панк WEBRip 1080p] bober100 Скачать
3 | 0

28-11-2019 20:33  

Отключить всю рекламу на сайте

15-07-2016 05:04 Ленинград - Сборник видеоклипов Скачать торрент  

Большое спасибо за раздачу.pb.wtf



    Дорогой пользователь! Огромная просьба, поблагодарите релизера, оцените раздачу и оставьте свои комментарий, если Вы скачали Ленинград - Сборник видеоклипов через торрент бесплатно!
    Комментировать посты могут только пользователи прошедшие не сложную регистрацию
    Показать сообщения:    

    Ленинград - Сборник видеоклипов через торрент
    Скачать бесплатно Ленинград - Сборник видеоклипов
    Ленинград - Сборник видеоклипов скачать торрент
    Ленинград - Сборник видеоклипов смотреть онлайн
    Cкачать фильм Ленинград - Сборник видеоклипов бесплатно
    Ленинград - Сборник видеоклипов скачать торрент в хорошем качестве
    Ленинград - Сборник видеоклипов смотреть онлайн бесплатно в хорошем качестве


    Вы не можете начинать темы
    Вы не можете отвечать на сообщения
    Вы не можете редактировать свои сообщения
    Вы не можете удалять свои сообщения
    Вы не можете голосовать в опросах
    Вы не можете прикреплять файлы к сообщениям
    Вы можете скачивать файлы