Ссылка на приватное зеркало нашего сайта всего за 1$. Внимание количество ограничено!!!

2 сезон

iTunes

1 сезон

1

iTunes

iTunes

iTunes

1 сезон

RePack

30

ИГРА 18+

pack

ВАЖНО

!!Акция!!

Alien_RageХит недели

RePack

MK11
pack

Забери бонус

RePack

jed

!!Акция!!

Alien_Rage

RePack

fifa19

RePack

Assassins Creed: Odyssey

RePack

NEED FOR SPEED™ PAYBACK

4 сезон

9 сезон

Бесстыжие 9 сезон

Все сериалы

все сериалы на PB.wtf

RePack

FAR CRY 5
  

Иисус / Jesus ( Джон Хейман, Джон Криш, Питер Сайкс) [1979, Драма, исторический, BDRip 720p] [35th Anniversary Edition Remastered] DUB pb.wtf

Иисус через торрент pb.wtf

Раздают: 1 [ 0 KB/s ]
Размер: 7.11 GB | Добавлен: 4 года 5 мес. назад | Торрент скачан:155 раз
Скачать  

04-05-2016 09:34 Иисус Скачать торрент  

Информация о фильме

Название: Иисус

Оригинальное название: Jesus

Год выхода: 1979

Выпущено: США, Inspirational Films, The Genesis Project

Продолжительность: 02:07:45

Перевод : Дублированный (Российское Библейское общество), дублированный (Советский дубляж), дублированный (Христианская миссия "Новая жизнь"), дублированный (Мусульманский вариант - Русский восточный дубляж для мусульман)

Оригинальная аудио-дорожка: Английская

Жанр: Драма, исторический, семейный, биография, экранизация

Режиссёры: Джон Хейман, Джон Криш, Питер Сайкс

В ролях: Брайан Дикон, Ривка Нойман, Александр Скурби, Нико Нитай, Йосси Шиллоах, Ори Леви, Моско Алкалай, Коби Ассаф, Моти Бахарав, Яаков Бен-Сира

Описание:

Фильм «Иисус» - экранизация Евангелия от Луки. Как бы много различных фильмов вы ни видели, фильм "Иисус" отличается от любого из них. Этот фильм - честное повествование о жизни Христа, в буквальном смысле слова, изменяющее жизнь. Фильм "Иисус" был переведён на большее количество языков, чем какой-либо ещё. Ни один другой фильм за всю историю кинематографа не собирал такой громадной аудитории. В качестве основы для диалогов и событий фильма было использовано Евангелие от Луки. К 35-ти летнему юбилею фильма, - была выпущена полностью отреставрированная версия.


Файл

Качество: BDRip 720p [Исходник: Blu-ray 1080p AVC DTS 5.1 | 35th Anniversary Edition]
Формат: MKV

Видео: MPEG-4 AVC, 1280x720 (16:9), 6555 Кбит/с, 23.976 кадр/с, 0.297 bit/pixel

Аудио #1: Русский, Dolby AC3, 48000 Гц, 192 Кбит/с, 2 канала (Стерео) - Дубляж Российского Библейского общества

Аудио #2: Русский, Dolby AC3, 48000 Гц, 192 Кбит/с, 2 канала (Стерео) - Советский дубляж

Аудио #3: Русский, Dolby AC3, 48000 Гц, 192 Кбит/с, 2 канала (Стерео) - Дубляж Христианской миссии "Новая жизнь"

Аудио #4: Русский, Dolby AC3, 48000 Гц, 192 Кбит/с, 2 канала (Стерео) - Русский восточный дубляж для мусульман [Мусульманский вариант]

Аудио #5: Английский, Dolby AC3, 48000 Гц, 640 Кбит/с, 6 каналов (5.1) - Оригинал

Субтитры: Русские, английские (полные, SDH) SRT

Навигация по главам: Есть (Сохранены оригинальные чаптеры, как на Blu-ray)
Фильм был показан свыше 6 миллиардов раз (включая повторные показы). Это было связано с высоким количеством переводов почти на тысячу языков и выходящим на VHS, DVD Blu-ray, и аудио-версиях, а также с тем, что кинокартина была показана в 228 странах мира.

Прежде чем начать натурные сьёмки в Израиле, были проведены скрупулезные исследования и подготовка, занявшие 5 лет. В специальных мастерских были изготовлены глиняные изделия, инструменты и одежда по образцам первого века от Рождества Христова.

В качестве основы для диалогов и событий фильма было использовано Евангелие от Луки.

За исключением британского актёра Брайана Дикона, все члены актёрского состава - жители Израиля и не известны за пределами своей страны.

Фильм был переведён более, чем на 1200 языков.

Чтобы подготовиться к съёмкам, Брайан Дикон прочитал Евангелие от Луки, более двадцати раз в различных переводах, запоминая при этом целые главы.

В 2014 году после просмотра фильма «Иисус» более 400 индейцев майя решили стать христианами, это произошло в Мексике, на полуострове Юкатан, в трех деревнях за три вечера.
x264 [info]: profile High, level 4.1

x264 [info]: frame I:1232 Avg QP:16.70 size:166699

x264 [info]: frame P:45895 Avg QP:19.17 size: 67593

x264 [info]: frame B:136665 Avg QP:20.84 size: 21754

x264 [info]: consecutive B-frames: 3.0% 3.1% 12.5% 33.8% 18.3% 26.3% 2.2% 0.8%
General

Unique ID : 171025598229786685212398829238212516870 (0x80AA5503C4AAF4B1AA43013EE8A25C06)

Complete name : Jesus.1979.BDRip.720p.mkv

Format : Matroska

Format version : Version 4 / Version 2

File size : 7.11 GiB

Duration : 2h 8mn

Overall bit rate : 7 907 Kbps

Movie name : Иисус / Jesus (1979) BDRip (720p) от ivandubskoj

Encoded date : UTC 2016-05-03 19:08:02

Writing application : mkvmerge v7.8.0 ('River Man') 64bit built on Mar 27 2015 16:31:37

Writing library : libebml v1.3.1 + libmatroska v1.4.2

Video

ID : 1

Format : AVC

Format/Info : Advanced Video Codec

Format profile : High@L4.1

Format settings, CABAC : Yes

Format settings, ReFrames : 8 frames

Codec ID : V_MPEG4/ISO/AVC

Duration : 2h 8mn

Bit rate : 6 555 Kbps

Width : 1 280 pixels

Height : 720 pixels

Display aspect ratio : 16:9

Frame rate mode : Constant

Frame rate : 23.976 fps

Color space : YUV

Chroma subsampling : 4:2:0

Bit depth : 8 bits

Scan type : Progressive

Bits/(Pixel*Frame) : 0.297

Stream size : 5.70 GiB (80%)

Title : Иисус / Jesus (1979)

Writing library : x264 core 146 r2538 121396c

Encoding settings : cabac=1 / ref=8 / deblock=1:-3:-3 / analyse=0x3:0x113 / me=umh / subme=10 / psy=1 / psy_rd=1.00:0.00 / mixed_ref=1 / me_range=32 / chroma_me=1 / trellis=2 / 8x8dct=1 / cqm=0 / deadzone=21,11 / fast_pskip=0 / chroma_qp_offset=-2 / threads=6 / lookahead_threads=1 / sliced_threads=0 / nr=0 / decimate=0 / interlaced=0 / bluray_compat=0 / constrained_intra=0 / bframes=7 / b_pyramid=2 / b_adapt=2 / b_bias=0 / direct=3 / weightb=1 / open_gop=0 / weightp=2 / keyint=240 / keyint_min=23 / scenecut=40 / intra_refresh=0 / rc_lookahead=40 / rc=2pass / mbtree=0 / bitrate=6555 / ratetol=1.0 / qcomp=0.60 / qpmin=0 / qpmax=69 / qpstep=4 / cplxblur=20.0 / qblur=0.5 / vbv_maxrate=50000 / vbv_bufsize=62500 / nal_hrd=none / filler=0 / ip_ratio=1.40 / pb_ratio=1.30 / aq=1:1.00

Language : English

Default : Yes

Forced : No

Audio #1

ID : 2

Format : AC-3

Format/Info : Audio Coding 3

Mode extension : CM (complete main)

Format settings, Endianness : Big

Codec ID : A_AC3

Duration : 2h 8mn

Bit rate mode : Constant

Bit rate : 192 Kbps

Channel(s) : 2 channels

Channel positions : Front: L R

Sampling rate : 48.0 KHz

Bit depth : 16 bits

Compression mode : Lossy

Stream size : 177 MiB (2%)

Title : DUB [Российское Библейское общество]

Language : Russian

Default : Yes

Forced : No

Audio #2

ID : 3

Format : AC-3

Format/Info : Audio Coding 3

Mode extension : CM (complete main)

Format settings, Endianness : Big

Codec ID : A_AC3

Duration : 2h 8mn

Bit rate mode : Constant

Bit rate : 192 Kbps

Channel(s) : 2 channels

Channel positions : Front: L R

Sampling rate : 48.0 KHz

Bit depth : 16 bits

Compression mode : Lossy

Stream size : 177 MiB (2%)

Title : DUB [Советский дубляж]

Language : Russian

Default : No

Forced : No

Audio #3

ID : 4

Format : AC-3

Format/Info : Audio Coding 3

Mode extension : CM (complete main)

Format settings, Endianness : Big

Codec ID : A_AC3

Duration : 2h 8mn

Bit rate mode : Constant

Bit rate : 192 Kbps

Channel(s) : 2 channels

Channel positions : Front: L R

Sampling rate : 48.0 KHz

Bit depth : 16 bits

Compression mode : Lossy

Stream size : 177 MiB (2%)

Title : DUB [Христианская миссия "Новая жизнь"]

Language : Russian

Default : No

Forced : No

Audio #4

ID : 5

Format : AC-3

Format/Info : Audio Coding 3

Mode extension : CM (complete main)

Format settings, Endianness : Big

Codec ID : A_AC3

Duration : 2h 8mn

Bit rate mode : Constant

Bit rate : 192 Kbps

Channel(s) : 2 channels

Channel positions : Front: L R

Sampling rate : 48.0 KHz

Bit depth : 16 bits

Compression mode : Lossy

Stream size : 177 MiB (2%)

Title : DUB [Мусульманский вариант]

Language : Russian

Default : No

Forced : No

Audio #5

ID : 6

Format : AC-3

Format/Info : Audio Coding 3

Mode extension : CM (complete main)

Format settings, Endianness : Big

Codec ID : A_AC3

Duration : 2h 8mn

Bit rate mode : Constant

Bit rate : 640 Kbps

Channel(s) : 6 channels

Channel positions : Front: L C R, Side: L R, LFE

Sampling rate : 48.0 KHz

Bit depth : 16 bits

Compression mode : Lossy

Stream size : 589 MiB (8%)

Title : Original

Language : English

Default : No

Forced : No

Text #1

ID : 7

Format : UTF-8

Codec ID : S_TEXT/UTF8

Codec ID/Info : UTF-8 Plain Text

Title : Full

Language : Russian

Default : No

Forced : No

Text #2

ID : 8

Format : UTF-8

Codec ID : S_TEXT/UTF8

Codec ID/Info : UTF-8 Plain Text

Title : Full

Language : English

Default : No

Forced : No

Menu

00:00:00.000 : en:00:00:00.000

00:07:59.896 : en:00:07:59.896

00:14:13.895 : en:00:14:13.895

00:27:03.539 : en:00:27:03.539

00:40:27.425 : en:00:40:27.425

00:55:38.961 : en:00:55:38.961

01:15:09.964 : en:01:15:09.964

01:23:27.211 : en:01:23:27.211

01:32:51.983 : en:01:32:51.983

01:43:11.018 : en:01:43:11.018

01:56:35.322 : en:01:56:35.322

01:59:17.567 : en:01:59:17.567
Автор рипа - ivandubskojpb.wtf



Скачать Иисус через торрент http://i80.fastpic.ru/big/2016/0504/a1/9e996542d9611933f6accf7f55b9b8a1.jpg Скачать фильм Иисус через торрент бесплантно в хорошем качестве Описание:Фильм «Иисус» - экранизация Евангелия от Луки. Как бы много различных фильмов вы ни видели, фильм "Иисус" отличается от любого из ... 9.9 10 8
Info! Золотая раздача, скачанное не засчитывается.
Торрент: Зарегистрирован [2016-05-04 09:34] · скачан: 155 раз
Статус: √ проверено
Размер: 7.11 GB
Как cкачать? Как скачать Иисус через торрент | qTorrent

% Раздел Тема Автор DL S | L
Фильмы до 2000 г. [ 1.46 GB ] Иисус / Jesus [1979 биография DVDRip] DUB [полная версия] Kosmopolis Скачать
1 | 0

28-11-2019 20:33  

Отключить всю рекламу на сайте

04-05-2016 10:36 Иисус Скачать торрент  

смотрел еще тогда в школе учился,а потом искал его и вот нашел да еще в hd качестве видео pb.wtf



06-05-2016 18:31 Иисус Скачать торрент  

СПАСИБО ОГРОМНЕЙШЕЕ за данный релиз. Пусть БОГ благословит Вас за этот подарок для нас.pb.wtf



    Дорогой пользователь! Огромная просьба, поблагодарите релизера, оцените раздачу и оставьте свои комментарий, если Вы скачали Иисус через торрент бесплатно! Внесите свою лепту в развитие PiratBit!
    Комментировать посты могут только пользователи прошедшие не сложную регистрацию
    Показать сообщения:    

    Иисус через торрент
    Скачать бесплатно Иисус
    Иисус скачать торрент
    Иисус смотреть онлайн
    Cкачать фильм Иисус бесплатно
    Иисус скачать торрент в хорошем качестве
    Иисус смотреть онлайн бесплатно в хорошем качестве


    Вы не можете начинать темы
    Вы не можете отвечать на сообщения
    Вы не можете редактировать свои сообщения
    Вы не можете удалять свои сообщения
    Вы не можете голосовать в опросах
    Вы не можете прикреплять файлы к сообщениям
    Вы можете скачивать файлы