Ссылка на приватное зеркало всего за 1$. Внимание количество ограничено!!!

iTunes

1+1

iTunes

мы

WEB-DL

1

iTunes

Чернобыль

iTunes

Ральф против интернета

Лицензия

ПШазам

Лицензия

Оно 2

Лицензия

30
pack

Вам бонус

ВАЖНО

!!Акция!!

Alien_RageХит недели

RePack

Resident Evil 21

ИГРА 18+

pack

RePack

jed

!!Акция!!

Alien_Rage

RePack

fifa19

RePack

Assassins Creed: Odyssey

RePack

NEED FOR SPEED™ PAYBACK

3 сезон

9 сезон

Бесстыжие 9 сезон

Все сериалы

все сериалы на PB.wtf

RePack

FAR CRY 5
Ребята, катастрофически не хватает 1900р. для оплаты серверов за Октябрь (всвязи с блокировками трафик упал в 3 раза), 1-2р., выручайте.
  

Властелин колец: Трилогия Режиссерская версия / The Lord of the Rings: Trilogy directors cut (Питер Джексон) [2001 - 2003 г., фэнтези, приключения,HDRip, Дубляж Лицензия] pb.wtf

Властелин колец: Трилогия Режиссерская версия через торрент pb.wtf

Раздают: 5 [ 0 KB/s ] Качают: 1 [ 0 KB/s ]
Размер: 7.25 GB | Добавлен: 3 года 7 мес. назад | Торрент скачан:1162 раза
Скачать  

04-05-2016 11:14 Властелин колец: Трилогия Режиссерская версия Скачать торрент  

Властелин колец: Братство кольца Режиссерская версия / The Lord of the Rings: The Fellowship of the Ring directors cut
Год выпуска: 2001
Страна: США, Новая Зеландия
Жанр: фэнтези, приключения
Продолжительность: 03:48:11
Перевод: Дубляж со вставками многоголоски "Позитив"

Режиссер: Питер Джексон
Продюссер: Питер Джексон, Барри М. Осборн, Тим Сандерс
Сценарий: Фрэнсис Уолш, Филиппа Бойенс, Питер Джексон

Бюджет: $93 000 000
Премьера в мире: 10 декабря 2001

IMDB 8.80 (1 147 997)


В ролях: Элайджа Вуд, Иэн МакКеллен, Вигго Мортенсен, Шон Бин, Орландо Блум, Джон Рис-Дэвис, Иэн Холм, Шон Эстин, Билли Бойд, Доминик Монахэн, Алексей Елистратов, Рогволд Суховерко, Алексей Рязанцев, Владимир Антоник, Олег Вирозуб

Описание: Сказания о Средиземье — это хроника Великой войны за Кольцо, войны, длившейся не одну тысячу лет. Тот, кто владел Кольцом, получал Влacть над всеми живыми тварями, но был обязан служить злу. Тихая деревня, где живут хоббиты. Волшебник Гэндальф, придя на 111-й день рождения к своему старому другу Бильбо Бэггинсу, начинает вести разговор о кольце, которое Бильбо нашел много лет назад. Это кольцо принадлежало когда-то темному властителю Средиземья Саурону, и оно дает большую Влacть своему обладателю. Теперь Саурон хочет вернуть себе Влacть над Средиземьем. Бильбо отдает найденное кольцо своему племяннику Фродо, который пытается научиться справляться с тем страшным могуществом, которое дает ему кольцо...

Качество: HDRip
Формат: AVI
Видео: XviD; 720x304 (2.35:1); 1162 Kbps; 23,976 fps; 0,222 bpp
Аудио#1: AC3; 192 Kbps; CBR; 2 ch; 48.0 KHz
General
Complete name : G:\Властелин колец_Режиссерская версия\2001_Братство кольца.avi
Format : AVI
Format/Info : Audio Video Interleave
Format profile : OpenDML
File size : 2.18 GiB
Duration : 3h 48mn
Overall bit rate : 1 367 Kbps
Writing application : VirtualDubMod 1.5.10.2 (build 2540/release)
Writing library : VirtualDubMod build 2540/release

Video
ID : 0
Format : MPEG-4 Visual
Format profile : Advanced Simple@L5
Format settings, BVOP : 1
Format settings, QPel : No
Format settings, GMC : No warppoints
Format settings, Matrix : Custom
Codec ID : XVID
Codec ID/Hint : XviD
Duration : 3h 48mn
Bit rate : 1 163 Kbps
Width : 720 pixels
Height : 304 pixels
Display aspect ratio : 2.35:1
Frame rate : 23.976 (23976/1000) fps
Color space : YUV
Chroma subsampling : 4:2:0
Bit depth : 8 bits
Scan type : Progressive
Compression mode : Lossy
Bits/(Pixel*Frame) : 0.222
Stream size : 1.85 GiB (85%)
Writing library : XviD 1.2.1 (UTC 2008-12-04)

Audio
ID : 1
Format : AC-3
Format/Info : Audio Coding 3
Mode extension : CM (complete main)
Format settings, Endianness : Big
Codec ID : 2000
Duration : 3h 48mn
Bit rate mode : Constant
Bit rate : 192 Kbps
Channel(s) : 2 channels
Channel positions : Front: L R
Sampling rate : 48.0 KHz
Frame rate : 31.250 fps (1536 spf)
Compression mode : Lossy
Stream size : 313 MiB (14%)
Alignment : Aligned on interleaves
Interleave, duration : 42 ms (1.00 video frame)
Interleave, preload duratio : 512 ms

Властелин колец: Братство кольца Режиссерская версия скачать торрент

Властелин колец: Две крепости Режиссерская версия / The Lord of the Rings: The Two Towers directors cut
Год выпуска: 2002
Страна: США, Новая Зеландия
Жанр: фэнтези, приключения
Продолжительность: 03:55:24
Перевод: Дубляж со вставками многоголоски "Позитив"

Режиссер: Питер Джексон
Продюссер: Питер Джексон, Барри М. Осборн, Фрэнсис Уолш
Сценарий: Фрэнсис Уолш, Филиппа Бойенс, Стивен Синклер

Бюджет: $94 000 000
Премьера в мире: 5 декабря 2002

IMDB 8.70 (1 011 816)


В ролях: Элайджа Вуд, Шон Эстин, Орландо Блум, Вигго Мортенсен, Иэн МакКеллен, Доминик Монахэн, Миранда Отто, Джон Рис-Дэвис, Энди Серкис, Билли Бойд, Григорий Анашкин, Андрей Бархударов, Олег Вирозуб, Алексей Рязанцев, Рогволд Суховерко

Описание: Братство распалось, но Кольцо Всевластья должно быть уничтожено. Фродо и Сэм вынуждены доверить свои жизни Голлуму, который взялся провести их к вратам Мордора. Громадная Армия Сарумана приближается: члены братства и их союзники готовы принять бой. Битва за Средиземье продолжается.

Качество: HDRip
Формат: AVI
Видео: XviD; 720x304 (2.35:1); 1302 Kbps; 23,976 fps; 0,248 bpp
Аудио#1: AC3; 448 Kbps; CBR; 6 ch; 48.0 KHz
General
Complete name : G:\Властелин колец_Режиссерская версия\2002_Две крепости.avi
Format : AVI
Format/Info : Audio Video Interleave
Format profile : OpenDML
File size : 2.90 GiB
Duration : 3h 55mn
Overall bit rate : 1 761 Kbps
Writing application : VirtualDubMod 1.5.10.2 (build 2540/release)
Writing library : VirtualDubMod build 2540/release

Video
ID : 0
Format : MPEG-4 Visual
Format profile : Advanced Simple@L5
Format settings, BVOP : 1
Format settings, QPel : No
Format settings, GMC : No warppoints
Format settings, Matrix : Custom
Codec ID : XVID
Codec ID/Hint : XviD
Duration : 3h 55mn
Bit rate : 1 303 Kbps
Width : 720 pixels
Height : 304 pixels
Display aspect ratio : 2.35:1
Frame rate : 23.976 (23976/1000) fps
Color space : YUV
Chroma subsampling : 4:2:0
Bit depth : 8 bits
Scan type : Progressive
Compression mode : Lossy
Bits/(Pixel*Frame) : 0.248
Stream size : 2.14 GiB (74%)
Writing library : XviD 1.2.1 (UTC 2008-12-04)

Audio
ID : 1
Format : AC-3
Format/Info : Audio Coding 3
Mode extension : CM (complete main)
Format settings, Endianness : Big
Codec ID : 2000
Duration : 3h 55mn
Bit rate mode : Constant
Bit rate : 448 Kbps
Channel(s) : 6 channels
Channel positions : Front: L C R, Side: L R, LFE
Sampling rate : 48.0 KHz
Frame rate : 31.250 fps (1536 spf)
Compression mode : Lossy
Stream size : 754 MiB (25%)
Alignment : Aligned on interleaves
Interleave, duration : 42 ms (1.00 video frame)
Interleave, preload duratio : 512 ms

Властелин колец: Две крепости Режиссерская версия скачать торрент

Властелин колец: Возвращение Короля Режиссерская версия / The Lord of the Rings: The Return of the King directors cut
Год выпуска: 2003
Страна: США, Новая Зеландия
Жанр: фэнтези, приключения
Продолжительность: 04:23:10
Перевод: Дубляж со вставками многоголоски "Позитив"

Режиссер: Питер Джексон
Продюссер: Питер Джексон, Барри М. Осборн, Фрэнсис Уолш
Сценарий: Фрэнсис Уолш, Филиппа Бойенс, Питер Джексон

Бюджет: $94 000 000
Премьера в мире: 1 декабря 2003

IMDB 8.90 (1 121 559)


В ролях: Элайджа Вуд, Вигго Мортенсен, Шон Эстин, Иэн МакКеллен, Орландо Блум, Доминик Монахэн, Билли Бойд, Энди Серкис, Миранда Отто, Бернард Хилл, Григорий Анашкин, Алексей Рязанцев, Андрей Бархударов, Рогволд Суховерко, Олег Вирозуб

Описание: Последняя часть трилогии о Кольце Всевластия и о героях, взявших на себя бремя спасения Средиземья. Повелитель сил Тьмы Саурон направляет свои бесчисленные рати под стены Минас-Тирита, крепости Последней Надежды. Он предвкушает близкую победу, но именно это и мешает ему заметить две крохотные фигурки — хоббитов, приближающихся к Роковой Горе, где им предстоит уничтожить Кольцо Всевластия. Улыбнется ли им счастье?

Качество: HDRip
Формат: AVI
Видео: XviD; 720x304 (2.35:1); 1118 Kbps; 23,976 fps; 0,213 bpp
Аудио#1: AC3; 192 Kbps; CBR; 2 ch; 48.0 KHz
General
Complete name : G:\Властелин колец_Режиссерская версия\2003_Возвращение короля.avi
Format : AVI
Format/Info : Audio Video Interleave
Format profile : OpenDML
File size : 2.18 GiB
Duration : 4h 23mn
Overall bit rate : 1 186 Kbps
Writing application : VirtualDubMod 1.5.10.2 (build 2540/release)
Writing library : VirtualDubMod build 2540/release

Video
ID : 0
Format : MPEG-4 Visual
Format profile : Advanced Simple@L5
Format settings, BVOP : 1
Format settings, QPel : No
Format settings, GMC : No warppoints
Format settings, Matrix : Custom
Codec ID : XVID
Codec ID/Hint : XviD
Duration : 4h 23mn
Bit rate : 982 Kbps
Width : 720 pixels
Height : 304 pixels
Display aspect ratio : 2.35:1
Frame rate : 23.976 (23976/1000) fps
Color space : YUV
Chroma subsampling : 4:2:0
Bit depth : 8 bits
Scan type : Progressive
Compression mode : Lossy
Bits/(Pixel*Frame) : 0.187
Stream size : 1.80 GiB (83%)
Writing library : XviD 1.2.1 (UTC 2008-12-04)

Audio
ID : 1
Format : AC-3
Format/Info : Audio Coding 3
Mode extension : CM (complete main)
Format settings, Endianness : Big
Codec ID : 2000
Duration : 4h 23mn
Bit rate mode : Constant
Bit rate : 192 Kbps
Channel(s) : 2 channels
Channel positions : Front: L R
Sampling rate : 48.0 KHz
Frame rate : 31.250 fps (1536 spf)
Compression mode : Lossy
Stream size : 361 MiB (16%)
Alignment : Aligned on interleaves
Interleave, duration : 42 ms (1.00 video frame)
Interleave, preload duratio : 512 ms

Властелин колец: Возвращение Короля Режиссерская версия скачать торрент

pb.wtf



Скачать Властелин колец: Трилогия Режиссерская версия через торрент http://pic1.kartinco.top/images/10/zwjy9.jpg Скачать фильм Властелин колец: Трилогия Режиссерская версия через торрент бесплантно в хорошем качестве Описание: Сказания о Средиземье — это хроника Великой войны за Кольцо, войны, длившейся не одну тысячу лет. Тот, кто владел Кольцом, ... 9.6 10 50
× Info от релизера! Властелин колец_Режиссерская версия_[scarabey.org]
Info! Золотая раздача, скачанное не засчитывается.
Торрент: Зарегистрирован [2016-05-05 19:37] · скачан: 1 162 раз
Статус: √ проверено
Размер: 7.25 GB
Как cкачать? Как скачать Властелин колец: Трилогия Режиссерская версия через торрент | qTorrent



Последний раз редактировалось: неАлексей (2016-05-05 19:37), всего редактировалось 5 раз(а)

28-11-2019 20:33  

Отключить всю рекламу на сайте

04-05-2016 13:40 Властелин колец: Трилогия Режиссерская версия Скачать торрент  

Торрент файл был обновлен!
Просьба к скачавшим перекачать!
pb.wtf



04-05-2016 15:49 Властелин колец: Трилогия Режиссерская версия Скачать торрент  

Цитата:

Властелин колец: Трилогия Режиссерская версия / The Lord of the Rings: Trilogy directors cut (Питер Джексон) [фэнтези, приключения, Дубляж Лицензия]

у меня три части свыше 100 гбpb.wtf



04-05-2016 16:01 Властелин колец: Трилогия Режиссерская версия Скачать торрент  

в имени ссылка на сторонний ресурсpb.wtf



04-05-2016 16:31 Властелин колец: Трилогия Режиссерская версия Скачать торрент  

неАлексей, я прошлую Вашу раздачу отредактировал, Вы видимо не поняли, ознакомтесь - http://pb.wtf/topic/58128
1.1 Общий вид:

Цитата:

Название на русском / Название на оригинале (режиссер) [год, жанр, качество, перевод]

Цитата:

2.1 Размер обложки не должен превышать 700*700 пикселей

Цитата:

12.12 Заполнение тех. данных должно выглядеть так: (Редакция от 13.09.15)

и в имени файла сторонний ресурс: как вариант переменуйте файл и перезалейтеpb.wtf



04-05-2016 16:44 Властелин колец: Трилогия Режиссерская версия Скачать торрент  

У тебя длительность фильмов перепутана поменяй Властелин колец: Возвращение Короля:Длительность:04:23:16 Властелин колец: Две крепости:Длительность:03:55:30pb.wtf



04-05-2016 19:35 Властелин колец: Трилогия Режиссерская версия Скачать торрент  

Folks42 писал(а):

У тебя длительность фильмов перепутана поменяй Властелин колец: Возвращение Короля:Длительность:04:23:16 Властелин колец: Две крепости:Длительность:03:55:30

С длительностью все нормально, неверное Вы что то перепутали!pb.wtf



04-05-2016 19:36 Властелин колец: Трилогия Режиссерская версия Скачать торрент  

Торрент файл был обновлен!
Просьба к скачавшим перекачать!
pb.wtf



04-05-2016 19:42 Властелин колец: Трилогия Режиссерская версия Скачать торрент  

неАлексей, где частота дискретизации (KHz)?

Цитата:

Аудио#1: AC3; 192 Kbps; CBR; 2 ch

Частота : 48.0 KHzpb.wtf



04-05-2016 19:59 Властелин колец: Трилогия Режиссерская версия Скачать торрент  

schultz писал(а):

неАлексей, где частота дискретизации (KHz)?

Цитата:

Аудио#1: AC3; 192 Kbps; CBR; 2 ch

Частота : 48.0 KHz

добавилpb.wtf



05-05-2016 12:21 Властелин колец: Трилогия Режиссерская версия Скачать торрент  

05-05-2016 13:43 Властелин колец: Трилогия Режиссерская версия Скачать торрент  

Первую часть посмотрел отлично. Со вторым и третьим проблемы, в VLC плеере картинка отображается неадекватно. Название файлов второй и третьей части перепутаны.

P.S. Если я не прав, то поправьте меня.pb.wtf



05-05-2016 19:44 Властелин колец: Трилогия Режиссерская версия Скачать торрент  

Vremenno111 писал(а):

Первую часть посмотрел отлично. Со вторым и третьим проблемы, в VLC плеере картинка отображается неадекватно. Название файлов второй и третьей части перепутаны.

В полном недоумении как так получилось, но вторая и третья часть не перепутаны, а почему то третья-это третья, а вторая-это также третья, хотя сам лично посмотрел все три части!
Скачать заново вторую часть нет возможности, поэтом залью другой файл чуть большим размером в 2,9Gb, зато качество будет получше))
XviD; 720x304 (2.35:1); 1302 Kbps
AC3; 448 Kbps; CBR; 6 ch
Еще раз прошу прощения за неудобства!
Просьба перекачать торрент!pb.wtf



06-05-2016 04:40 Властелин колец: Трилогия Режиссерская версия Скачать торрент  

залей на 720pb.wtf



06-05-2016 06:43 Властелин колец: Трилогия Режиссерская версия Скачать торрент  

zzzqwzz писал(а):

залей на 720

скорее всего, если ничего не случится, залью завтра первую часть
URL=http://pic1.kartinco.top/images/10/w257t.jpg] [/url]
AVC, 1280x534 (2.40:1) at 23.976 fps, AVC at 3696 kbps avg, 0.221 bit/pixel
48 kHz, AC3 Dolby Digital, 3/2 (L,C,R,l,r) + LFE ch, 448.00 kbps - Russian
Перевод: Профессиональный (дублированный) (со вставками многоголосого "Позитив")pb.wtf



06-05-2016 15:47 Властелин колец: Трилогия Режиссерская версия Скачать торрент  

супер только плиз режиссерскую версию. заранее спасибо.pb.wtf



Друзья, наш проект PiratBit построен на чистом энтузиазме. Денег от рекламы он приносит мало, потому как нет хороших, богатых рекламодателей, которые бы хотели работать с сайтами, которые нарушают законодательство той или иной страны, да и вешать какую-то шлако-рекламу с вирусами тоже мы не хотим, поскольку мы уважаем своих пользователей и Ваша безопасность на нашем сайте для нас превыше всего. В связи с этим, мы вынуждены просить помощи у каждого из Вас. Каких-то 3, 5, 10 рублей для каждого из Вас по большому счету копейки, а для нас это будет хорошая поддержка.
Нашими приоритетами всегда были качество и быстрота везде и во всем!!!
Технически так сложилось, чтобы все "летало" мы используем 4 мощных абузоустойчивых сервера, каждый из которых стоит 100$ в месяц.
Ребята, мы будем рады любой помощи, надеюсь на понимание Devi...

Важно, если ваш платеж составляет больше 100 руб.(единоразово) то мы для вас отключим рекламу на месяц, 200=2мес., 300=3мес., 400=4мес., если больше чем 499 руб.(единоразово) то на 6 месяцев, УКАЗЫВАЙТЕ СВОЙ НИК В ПРИМЕЧАНИИ К ПЛАТЕЖУ!


Яндекс Деньги,QIWI,WebMoney,Steam,Payeer,СберБанк,Мобильный,BitCoin,PayPal

06-05-2016 18:30 Властелин колец: Трилогия Режиссерская версия Скачать торрент  

07-05-2016 21:25 Властелин колец: Трилогия Режиссерская версия Скачать торрент  

закончил хоббита смотреть залпом ща начну властелина колец,огромное спасибо от фаната вселенной толкина pb.wtf



02-10-2017 19:22 Властелин колец: Трилогия Режиссерская версия Скачать торрент  

спасибо !pb.wtf



    Дорогой пользователь! Огромная просьба, поблагодарите релизера, оцените раздачу и оставьте свои комментарий, если Вы скачали Властелин колец: Трилогия Режиссерская версия через торрент бесплатно! Внесите свою лепту в развитие PiratBit!
    Комментировать посты могут только пользователи прошедшие не сложную регистрацию
    Показать сообщения:    

    Властелин колец: Трилогия Режиссерская версия через торрент
    Скачать бесплатно Властелин колец: Трилогия Режиссерская версия
    Властелин колец: Трилогия Режиссерская версия скачать торрент
    Властелин колец: Трилогия Режиссерская версия смотреть онлайн
    Cкачать фильм Властелин колец: Трилогия Режиссерская версия бесплатно
    Властелин колец: Трилогия Режиссерская версия скачать торрент в хорошем качестве
    Властелин колец: Трилогия Режиссерская версия смотреть онлайн бесплатно в хорошем качестве


    Вы не можете начинать темы
    Вы не можете отвечать на сообщения
    Вы не можете редактировать свои сообщения
    Вы не можете удалять свои сообщения
    Вы не можете голосовать в опросах
    Вы не можете прикреплять файлы к сообщениям
    Вы можете скачивать файлы