Ссылка на приватное зеркало всего за 1$. Внимание количество ограничено!!!

OK

1+1

iTunes

мы

OK

1

WEB-DLRip

Джокер

Пифагор

Ведьмак / The Witcher сериал

Лицензия

ПШазам

ОК

Оно 2

iTunes

30
pack

Вам бонус

ВАЖНО

!!Акция!!

Alien_RageХит недели

RePack

Resident Evil 21

ИГРА 18+

pack

RePack

jed

!!Акция!!

Alien_Rage

RePack

fifa19

RePack

Assassins Creed: Odyssey

RePack

NEED FOR SPEED™ PAYBACK

4 сезон

9 сезон

Бесстыжие 9 сезон

Все сериалы

все сериалы на PB.wtf

RePack

FAR CRY 5
  

Дурак (Юрий Быков) [2014, Россия, драма, BDRip-AVC от sokol_ok] [iTunes] pb.wtf

Дурак через торрент pb.wtf

Размер: 2.18 GB | Добавлен: 3 года 8 мес. назад | Торрент скачан:603 раза
Скачать  

04-05-2016 12:43 Дурак Скачать торрент  

Дурак

«Успеет ли он спасти всех»


Страна: Россия
Жанр: драма

Год выпуска: 2014
Продолжительность: 02:00:52

Перевод: Не требуется (русский)
Субтитры: английские

Режиссер: Юрий Быков

В ролях: Артем Быстров, Наталья Суркова, Юрий Цурило, Борис Невзоров, Кирилл Полухин, Александр Коршунов, Ольга Самошина, Дарья Мороз, Сергей Арцибашев, Елена Панова, Дмитрий Куличков, Илья Исаев

Описание:
Жизни 800 человек общежития висят буквально на волоске из-за безразличия местных властей. В любую секунду здание может рухнуть. И кто бы мог подумать, что судьбы людей окажутся в руках простого сантехника. Но удастся ли ему что-то изменить и предотвратить катастрофу? Релиз:

Автор рипа: Stalker oK

Сэмпл

Качество видео: BDRip-AVC [HDCLUB / Blu-ray Disc / 1080p]
Формат видео: MKV
Видео кодек: AVC
Аудио кодек: AC3
Видео: 2199 Кбит/сек, 1152*484 (2,40:1), в 24,000 кадра/сек, AVC
Аудио: русский, 384 Кбит/сек, 48 КГц, 16 бит, 5.1, AC3 [iTunes]
Навигация по главам: есть

Общее
Уникальный идентификатор : 223037346511117304855118437900500110126 (0xA7CB6E3111D3E6F58E343BCB353C8B2E)
Полное имя : M:\1Rips\Durak\Durak.2014.BDRip-AVC.2.18Gb.stalkerok.new-team.mkv
Формат : Matroska
Версия формата : Version 4 / Version 2
Размер файла : 2,18 Гбайт
Продолжительность : 2 ч. 0 м.
Общий поток : 2583 Кбит/сек
Название фильма : Дурак (2014) (New-Team) (Rip by Stalker oK)
Дата кодирования : UTC 2016-05-04 12:14:27
Программа кодирования : mkvmerge v8.6.1 ('Flying') 64bit
Библиотека кодирования : libebml v1.3.3 + libmatroska v1.4.4

Видео
Идентификатор : 1
Формат : AVC
Формат/Информация : Advanced Video Codec
Профиль формата : High@L4.1
Параметр CABAC формата : Да
Параметр ReFrames формата : 13 кадров
Идентификатор кодека : V_MPEG4/ISO/AVC
Продолжительность : 2 ч. 0 м.
Битрейт : 2199 Кбит/сек
Ширина : 1152 пикселя
Высота : 484 пикселя
Соотношение сторон : 2,40:1
Режим частоты кадров : Постоянный
Частота кадров : 24,000 кадра/сек
Цветовое пространство : YUV
Субдискретизация насыщенности : 4:2:0
Битовая глубина : 8 бит
Тип развёртки : Прогрессивная
Бит/(Пиксели*Кадры) : 0.164
Размер потока : 1,85 Гбайт (85%)
Заголовок : Дурак (2014) (New-Team) (Rip by Stalker oK)
Библиотека кодирования : x264 core 148 r2665kMod a01e339
Настройки программы : cabac=1 / ref=13 / deblock=1:-3:-2 / analyse=0x3:0x133 / me=umh / subme=11 / psy=1 / fade_compensate=0.00 / psy_rd=1.00:0.05 / mixed_ref=1 / me_range=48 / chroma_me=1 / trellis=2 / 8x8dct=1 / cqm=0 / deadzone=21,11 / fast_pskip=0 / chroma_qp_offset=-3 / threads=12 / lookahead_threads=3 / sliced_threads=0 / nr=0 / decimate=0 / interlaced=0 / bluray_compat=0 / constrained_intra=0 / fgo=0 / bframes=14 / b_pyramid=2 / b_adapt=2 / b_bias=0 / direct=3 / weightb=1 / open_gop=0 / weightp=2 / keyint=240 / keyint_min=23 / scenecut=40 / intra_refresh=0 / rc_lookahead=60 / rc=2pass / mbtree=0 / bitrate=2199 / ratetol=1.0 / qcomp=0.70 / qpmin=0 / qpmax=69 / qpstep=4 / cplxblur=20.0 / qblur=0.5 / vbv_maxrate=50000 / vbv_bufsize=62500 / nal_hrd=none / filler=0 / ip_ratio=1.40 / pb_ratio=1.30 / aq=3:0.83
Default : Да
Forced : Нет

Аудио
Идентификатор : 2
Формат : AC-3
Формат/Информация : Audio Coding 3
Расширение режима : CM (complete main)
Параметр Endianness формата : Big
Идентификатор кодека : A_AC3
Продолжительность : 2 ч. 0 м.
Вид битрейта : Постоянный
Битрейт : 384 Кбит/сек
Каналы : 6 каналов
Расположение каналов : Front: L C R, Side: L R, LFE
Частота : 48,0 КГц
Частота кадров : 31,250 кадров/сек (1536 spf)
Метод сжатия : С потерями
Размер потока : 332 Мбайт (15%)
Язык : Russian
Default : Да
Forced : Нет

Текст
Идентификатор : 3
Формат : UTF-8
Идентификатор кодека : S_TEXT/UTF8
Идентификатор кодека/Информация : UTF-8 Plain Text
Продолжительность : 1 ч. 57 м.
Битрейт : 48 бит/сек
Count of elements : 1027
Размер потока : 41,7 Кбайт (0%)
Язык : English
Default : Нет
Forced : Нет

Меню
00:00:10.917 : en:Chapter 1
00:11:42.417 : en:Chapter 2
00:27:12.500 : en:Chapter 3
00:38:02.292 : en:Chapter 4
00:55:06.917 : en:Chapter 5
01:10:12.458 : en:Chapter 6
01:29:27.583 : en:Chapter 7
01:47:34.833 : en:Chapter 8
01:55:22.083 : en:Chapter 9
pb.wtf



Скачать Дурак через торрент http://i72.fastpic.ru/big/2015/0531/46/68ef8a2783b58e5344cc30bbd3f1b046.png Скачать фильм Дурак через торрент бесплантно в хорошем качестве Описание:Жизни 800 человек общежития висят буквально на волоске из-за безразличия местных властей. В любую секунду здание может рухнуть. И ... 8.3 10 8
Торрент: Зарегистрирован [2016-05-04 12:43] · скачан: 603 раз
Статус: √ проверено
Размер: 2.18 GB
Как cкачать? Как скачать Дурак через торрент | qTorrent

% Раздел Тема Автор DL S | L
Наши фильмы (HD, WEB-DL 720p, 1080p) [ 8.66 GB ] Дурак [2014 BDRip 1080p] [] bober100 Скачать
3 | 0
Развлекательные телепередачи и шоу, приколы и юмор [ 12.16 GB ] Деревня Дураков / Сезон: 1-6 / Серии: 1-109 из 109 [1996-2001 TVRip] killermax2013 Скачать
1 | 0
Наши новые фильмы 2014 [ 745 MB ] Дурак [2014 Россия BDRip-AVC от sokol_ok] [] sokol_ok Скачать
2 | 0
Наши фильмы (Blu-ray, BD-Remux, HDDVD) [ 22.79 GB ] Дурак [2014 Blu-ray Оригинальный] Бумер Скачать
1 | 0
Наши новые фильмы 2014 [ 1.45 GB ] Дурак [2014 HDRip Оригинал hkets1980 Скачать
1 | 0
Наши фильмы (HD, WEB-DL 720p, 1080p) [ 4.15 GB ] Дурак [2014 Россия / ТПО Рок BDRip 720p] potroks Скачать
1 | 0
Наши новые фильмы 2014 [ 1.46 GB ] Дурак [2014 Россия BDRip-AVC от sokol_ok] sokol_ok Скачать
2 | 0

28-11-2019 20:33  

Отключить всю рекламу на сайте

04-05-2016 17:05 Дурак Скачать торрент  

фильм точно дуракpb.wtf



04-05-2016 18:26 Дурак Скачать торрент  

более нудное и глупое кино еще поискать надоpb.wtf



04-05-2016 19:59 Дурак Скачать торрент  

AlexeyM писал(а):

более нудное и глупое кино еще поискать надо

герой точно д у р а к.pb.wtf



    Дорогой пользователь! Огромная просьба, поблагодарите релизера, оцените раздачу и оставьте свои комментарий, если Вы скачали Дурак через торрент бесплатно! Внесите свою лепту в развитие PiratBit!
    Комментировать посты могут только пользователи прошедшие не сложную регистрацию
    Показать сообщения:    

    Дурак через торрент
    Скачать бесплатно Дурак
    Дурак скачать торрент
    Дурак смотреть онлайн
    Cкачать фильм Дурак бесплатно
    Дурак скачать торрент в хорошем качестве
    Дурак смотреть онлайн бесплатно в хорошем качестве


    Вы не можете начинать темы
    Вы не можете отвечать на сообщения
    Вы не можете редактировать свои сообщения
    Вы не можете удалять свои сообщения
    Вы не можете голосовать в опросах
    Вы не можете прикреплять файлы к сообщениям
    Вы можете скачивать файлы