Ссылка на приватное зеркало нашего сайта всего за 1$. Внимание количество ограничено!!!

2 сезон

iTunes

1 сезон

1

iTunes

iTunes

iTunes

1 сезон

RePack

30

ИГРА 18+

pack

ВАЖНО

!!Акция!!

Alien_RageХит недели

RePack

MK11
pack

Забери бонус

RePack

jed

!!Акция!!

Alien_Rage

RePack

fifa19

RePack

Assassins Creed: Odyssey

RePack

NEED FOR SPEED™ PAYBACK

4 сезон

9 сезон

Бесстыжие 9 сезон

Все сериалы

все сериалы на PB.wtf

RePack

FAR CRY 5
  

Джек Стоун / Riot (Джон Лойд) [2015, боевик, BDRip 1080p, Профессиональный многоголосый [официальный звук] pb.wtf

Джек Стоун через торрент pb.wtf

Размер: 8.98 GB | Добавлен: 4 года 5 мес. назад | Торрент скачан:235 раз
Скачать  

04-05-2016 14:00 Джек Стоун Скачать торрент  


Джек Стоун / Riot
««Сесть, чтобы убить»»

ИНФОРМАЦИЯ:
Год выпуска:2015
Страна: США
Жанр: боевик
Продолжительность: 01:23:44
Перевод: Профессиональный многоголосый [официальный звук]
Режиссер: Джон Лойд

В Ролях:


Мэттью Риз (Jack Stone), Дольф Лундгрен (William), Даниэль Чакран (Alena), Чак Лиделл (Balam), Майкл Флинн (District Attorney Johnson), Ренни Грэймс (Trisha Sinclair), Ив Мауро (Allison), Мелани Стоун (Kat), Michaela McAllister (Rhiana), Amy Sturdivant (Kesha), Дэвид Уолкер (Warden Blain), Эндрю В. Джонсон (Mark Crane)

Описание:
Полицейский Джек Стоун умышленно грабит банки, чтобы оказаться за решеткой вместе с известным преступником русского происхождения Баламом. Балам - это не просто бандит, это очень опасный и изворотливый уголовник, которому подвластна даже местная полиция. Балам живет в тюрьме, словно король города. Его камера - это роскошная частная комната, построенная специально для него. Лишь немногие имеют доступ в ту часть тюрьмы, где сидит Балам. Даже надзиратели боятся туда ходить. Герой окружен собственными охранниками и приверженцами. Но Джек уже совсем близко, чтобы отомстить за своих родных, которых Балам хладнокровно убил. Балам безжалостен. Но Джек еще безжалостнее...

  • Мировая премьера:5 октября 2015

    ТЕХ.ДАННЫЕ:
    Качество: BDRip 1080p
    Формат: MKV
    Видео: AVC, 1920x1080 (16:9), 14021 kbps, 25 fps, 0,270 bpp
    Аудио №1: русский / AC3 / 2.0 / 48 kHz / 384 kbps / 16 bit ||
    Аудио №2: английский / AC3 / 5.1 / 48 kHz / 640 kbps / 16 bit
    Навигация по главам: есть

    Сэмпл


    General
    Unique ID : 207920677604844847216186124005021242632 (0x9C6C10DF314024CEB06D7D8A1F36D508)
    Complete name : D:\Торент\Djeck.StoUN.2O15.P.BDRip.1O8Op.mkv
    Format : Matroska
    Format version : Version 2
    File size : 8.98 GiB
    Duration : 1h 23mn
    Overall bit rate : 15.4 Mbps
    Encoded date : UTC 2016-05-03 22:58:06
    Writing application : mkvmerge v8.3.0 ('Over the Horizon') 64bit
    Writing library : libebml v1.3.1 + libmatroska v1.4.2

    Video
    ID : 1
    Format : AVC
    Format/Info : Advanced Video Codec
    Format profile : High@L4.1
    Format settings, CABAC : Yes
    Format settings, ReFrames : 4 frames
    Codec ID : V_MPEG4/ISO/AVC
    Duration : 1h 23mn
    Bit rate : 14.0 Mbps
    Width : 1 920 pixels
    Height : 1 080 pixels
    Display aspect ratio : 16:9
    Frame rate : 25.000 fps
    Color space : YUV
    Chroma subsampling : 4:2:0
    Bit depth : 8 bits
    Scan type : Progressive
    Bits/(Pixel*Frame) : 0.270
    Stream size : 8.20 GiB (91%)
    Writing library : x264 core 148 r2665 a01e339
    Encoding settings : cabac=1 / ref=4 / deblock=1:-3:-3 / analyse=0x3:0x133 / me=umh / subme=10 / psy=1 / psy_rd=1.00:0.00 / mixed_ref=1 / me_range=32 / chroma_me=1 / trellis=2 / 8x8dct=1 / cqm=0 / deadzone=21,11 / fast_pskip=0 / chroma_qp_offset=-2 / threads=12 / lookahead_threads=2 / sliced_threads=0 / nr=0 / decimate=0 / interlaced=0 / bluray_compat=0 / constrained_intra=0 / bframes=8 / b_pyramid=2 / b_adapt=2 / b_bias=0 / direct=3 / weightb=1 / open_gop=0 / weightp=2 / keyint=250 / keyint_min=24 / scenecut=40 / intra_refresh=0 / rc=crf / mbtree=0 / crf=16.7 / qcomp=0.60 / qpmin=0 / qpmax=69 / qpstep=4 / ip_ratio=1.40 / pb_ratio=1.30 / aq=3:0.80
    Language : English
    Default : Yes
    Forced : No

    Audio #1
    ID : 2
    Format : AC-3
    Format/Info : Audio Coding 3
    Mode extension : CM (complete main)
    Codec ID : A_AC3
    Duration : 1h 23mn
    Bit rate mode : Constant
    Bit rate : 384 Kbps
    Channel(s) : 2 channels
    Channel positions : Front: L R
    Sampling rate : 48.0 KHz
    Bit depth : 16 bits
    Compression mode : Lossy
    Stream size : 230 MiB (3%)
    Language : Russian
    Default : Yes
    Forced : Yes

    Audio #2
    ID : 3
    Format : AC-3
    Format/Info : Audio Coding 3
    Mode extension : CM (complete main)
    Codec ID : A_AC3
    Duration : 1h 23mn
    Bit rate mode : Constant
    Bit rate : 640 Kbps
    Channel(s) : 6 channels
    Channel positions : Front: L C R, Side: L R, LFE
    Sampling rate : 48.0 KHz
    Bit depth : 16 bits
    Compression mode : Lossy
    Stream size : 383 MiB (4%)
    Language : English
    Default : No
    Forced : No

    Menu
    00:00:00.000 : en:00:00:00.000
    00:00:08.280 : en:00:00:08.280
    00:10:35.560 : en:00:10:35.560
    00:21:02.760 : en:00:21:02.760
    00:31:29.920 : en:00:31:29.920
    00:41:56.960 : en:00:41:56.960
    00:52:23.840 : en:00:52:23.840
    01:02:50.720 : en:01:02:50.720
    01:13:18.120 : en:01:13:18.120
    01:20:53.520 : en:01:20:53.520
    Скриншоты:

    © Оформление by .::Ворон::.
    pb.wtf
    KВорон писал(а):

    сэмпл с ави файла, для оценки звука.



  • Скачать Джек Стоун через торрент http://pic.kartinco.top/images/6/ordi9.jpg Скачать фильм Джек Стоун через торрент бесплантно в хорошем качестве Описание: Полицейский Джек Стоун умышленно грабит банки, чтобы оказаться за решеткой вместе с известным преступником русского происхождения ... 8.3 10 12
    Торрент: Зарегистрирован [2016-05-04 14:00] · скачан: 235 раз
    Статус: T временная
    Размер: 8.98 GB
    Как cкачать? Как скачать Джек Стоун через торрент | qTorrent

    % Раздел Тема Автор DL S | L
    Фильмы 2015 [DVDrip, WEB-DLRip, HDrip] [ 1.37 GB ] Джек Стоун / Бунт / Riot [2015 HDRip] MVO Ворон Скачать
    1 | 0
    Фильмы 2015 (Звук TS, Cam, VO, DVO) [ 741 MB ] Джек Стоун / Бунт / Riot [2015 HDRip by _Один_777] DVO без рекламы Один 777 Скачать
    1 | 0

    28-11-2019 20:33  

    Отключить всю рекламу на сайте

    06-05-2016 13:44 Джек Стоун Скачать торрент  

    подожду звук в 6 чэнл!pb.wtf



      Дорогой пользователь! Огромная просьба, поблагодарите релизера, оцените раздачу и оставьте свои комментарий, если Вы скачали Джек Стоун через торрент бесплатно! Внесите свою лепту в развитие PiratBit!
      Комментировать посты могут только пользователи прошедшие не сложную регистрацию
      Показать сообщения:    

      Джек Стоун через торрент
      Скачать бесплатно Джек Стоун
      Джек Стоун скачать торрент
      Джек Стоун смотреть онлайн
      Cкачать фильм Джек Стоун бесплатно
      Джек Стоун скачать торрент в хорошем качестве
      Джек Стоун смотреть онлайн бесплатно в хорошем качестве


      Вы не можете начинать темы
      Вы не можете отвечать на сообщения
      Вы не можете редактировать свои сообщения
      Вы не можете удалять свои сообщения
      Вы не можете голосовать в опросах
      Вы не можете прикреплять файлы к сообщениям
      Вы можете скачивать файлы