2 сезон

iTunes

MVO

1

2 сезон

iTunes

iTunes

1 сезон

RePack

30

Новинка

ВАЖНО

ИГРА 18+

pack

RePack

MK11
pack

Легкие деньги

RePack

jed

RePack

fifa19

RePack

RDR2

RePack

NEED FOR SPEED™ PAYBACK

4 сезон

9 сезон

Бесстыжие 9 сезон

Все сериалы

все сериалы на PB.wtf

RePack

FAR CRY 5

Anonymous, доброй ночи, мы не успеваем собрать деньги на оплату серверов за декабрь и январь, помогите нам пожалуйста в это трудное время. В качестве благодарности мы отключим Вам всю рекламу на сайте (укажите свой ник в строку Ваше имя)!

×
  
Magnet ссылка

Осведомитель / Gibraltar (Жюльен Леклерк) [2013, триллер, криминал, HDRip, Профессиональный многоголосый [официальный звук] pb.wtf

Осведомитель через торрент pb.wtf

Размер: 1.46 GB | Добавлен: 4 года 8 мес. назад | Торрент скачан:194 раза
Скачать  

05-05-2016 02:29 Осведомитель Скачать торрент  


Осведомитель / Gibraltar


ИНФОРМАЦИЯ:
Год выпуска:2013
Страна: Франция, Канада
Жанр: триллер, криминал
Продолжительность: 01:55:49
Перевод: Профессиональный многоголосый [официальный звук]
Режиссер: Жюльен Леклерк

В Ролях:


Жиль Леллуш (Marc Duval), Тахар Рахим (Redjani Belimane), Риккардо Скамарчио (Mario / Claudio Pasco Lanfredi), Рафаэль Агоге (Clara Duval), Мелани Бернье (Cécile Duval), Филипп Наон (Glacose), Эйдан Дивайн (Bobby Sims), Власта Врана (Contrôleur Nichols), Джо Кобден (Agent Carlyle), Юсеф Хаджди (Le Messager), Жан-Филипп Пюмартин (Jean-Henri Gallois), Романо Орцари (Le Colosse)

Описание:
Невероятная история обычного француза Марка Фьеве, который подрабатывал таможенным информатором в Гибралтаре. Неожиданно он оказался втянутым в политическую интригу и незаконную торговлю наркотиками...

  • Мировая премьера:24 августа 2013

    ТЕХ.ДАННЫЕ:
    Качество: HDRip
    Формат: AVI
    Видео: XviD, 720x304 (2.35:1), 1531 kbps, 24 fps, 0,292 bpp
    Аудио: AC3 / 2.0 / 48 kHz / 192 kbps / 16 bit


    General
    Complete name : D:\Торент\Osvedomitelj.2013.P.HDRip.1.46GB.avi
    Format : AVI
    Format/Info : Audio Video Interleave
    File size : 1.46 GiB
    Duration : 1h 55mn
    Overall bit rate : 1 804 Kbps
    Writing application : VirtualDubMod 1.5.10.2 (build 2540/release)
    Writing library : VirtualDubMod build 2540/release

    Video
    ID : 0
    Format : MPEG-4 Visual
    Format profile : Advanced Simple@L5
    Format settings, BVOP : 2
    Format settings, QPel : No
    Format settings, GMC : No warppoints
    Format settings, Matrix : Default (MPEG)
    Codec ID : XVID
    Codec ID/Hint : XviD
    Duration : 1h 55mn
    Bit rate : 1 531 Kbps
    Width : 720 pixels
    Height : 304 pixels
    Display aspect ratio : 2.35:1
    Frame rate : 24.000 fps
    Color space : YUV
    Chroma subsampling : 4:2:0
    Bit depth : 8 bits
    Scan type : Progressive
    Compression mode : Lossy
    Bits/(Pixel*Frame) : 0.292
    Stream size : 1.24 GiB (85%)
    Writing library : XviD 1.2.1 (UTC 2008-12-04)

    Audio
    ID : 1
    Format : AC-3
    Format/Info : Audio Coding 3
    Mode extension : CM (complete main)
    Codec ID : 2000
    Duration : 1h 55mn
    Bit rate mode : Constant
    Bit rate : 192 Kbps
    Channel(s) : 2 channels
    Channel positions : Front: L R
    Sampling rate : 48.0 KHz
    Bit depth : 16 bits
    Compression mode : Lossy
    Stream size : 159 MiB (11%)
    Alignment : Split accross interleaves
    Скриншоты:

    © Оформление by .::Ворон::.
    pb.wtf



  • Скачать Осведомитель через торрент http://pic.kartinco.top/images/6/ordi9.jpg Скачать фильм Осведомитель через торрент бесплантно в хорошем качестве Описание: Невероятная история обычного француза Марка Фьеве, который подрабатывал таможенным информатором в Гибралтаре. Неожиданно он ... 8.5 10 8
    Торрент: Зарегистрирован [2016-05-05 02:29] · скачан: 194 раз
    Статус: T временная
    Размер: 1.46 GB
    Как cкачать? Как скачать Осведомитель через торрент | UTorrent

    % Раздел Тема Автор DL S | L
    Фильмы [HD 720p, 1080p] (Хороший звук DUB, MVO) [ 10.72 GB ] Осведомитель / Gibraltar [2013 BDRip 1080p by msltel] MVO msltel Скачать
    1 | 0
    Фильмы [HD 720p, 1080p] (Хороший звук DUB, MVO) [ 3.72 GB ] Осведомитель / Gibraltar [2013 BDRip 720p by msltel] MVO msltel Скачать
    1 | 0

    28-11-2019 20:33  

    Отключить всю рекламу на сайте

    05-05-2016 06:28 Осведомитель Скачать торрент  

    Семпл ни о чем! Качество звука не определишь! Зато Казлину встаили!!!pb.wtf



    05-05-2016 07:15 Осведомитель Скачать торрент  

    torrrrr, А что тебе надо в сэмпле? чтоб раскрыли весь сюжет и концовку показали? сэмпл для оценки картинки и звука, в данном сэмпле есть диалог. И где ты там услышал казино рекламу?pb.wtf



    05-05-2016 12:40 Осведомитель Скачать торрент  

    Гибралтар! pb.wtf



    05-05-2016 19:41 Осведомитель Скачать торрент  

    RomanovStyle писал(а):

    Гибралтар!

    Лабрадор...

    pb.wtf



      Дорогой пользователь! Огромная просьба, поблагодарите релизера, оцените раздачу и оставьте свои комментарий, если Вы скачали Осведомитель через торрент бесплатно! Внесите свою лепту в развитие PiratBit!
      Комментировать посты могут только пользователи прошедшие не сложную регистрацию
      Показать сообщения:    

      Осведомитель через торрент
      Скачать бесплатно Осведомитель
      Осведомитель скачать торрент
      Осведомитель смотреть онлайн
      Cкачать фильм Осведомитель бесплатно
      Осведомитель скачать торрент в хорошем качестве
      Осведомитель смотреть онлайн бесплатно в хорошем качестве


      Вы не можете начинать темы
      Вы не можете отвечать на сообщения
      Вы не можете редактировать свои сообщения
      Вы не можете удалять свои сообщения
      Вы не можете голосовать в опросах
      Вы не можете прикреплять файлы к сообщениям
      Вы можете скачивать файлы