Ссылка на приватное зеркало нашего сайта всего за 1$. Внимание количество ограничено!!!

2 сезон

iTunes

1 сезон

1

iTunes

iTunes

iTunes

1 сезон

RePack

30

ИГРА 18+

pack

ВАЖНО

!!Акция!!

Alien_RageХит недели

RePack

MK11
pack

Забери бонус

RePack

jed

!!Акция!!

Alien_Rage

RePack

fifa19

RePack

Assassins Creed: Odyssey

RePack

NEED FOR SPEED™ PAYBACK

4 сезон

9 сезон

Бесстыжие 9 сезон

Все сериалы

все сериалы на PB.wtf

RePack

FAR CRY 5
  

Судьба барабанщика 1-3 из 3 (Александр Игишев) [1976, СССР, детский, приключения, SATRip от AVP Studio] pb.wtf

Судьба барабанщика 1-3 из 3 через торрент pb.wtf

Размер: 2.84 GB | Добавлен: 4 года 5 мес. назад | Торрент скачан:18 раз
Скачать  

05-05-2016 07:35 Судьба барабанщика 1-3 из 3 Скачать торрент  

Судьба барабанщика
Страна: СССР
Производство: Одесская киностудия

Жанр: детский, приключения
Год выпуска: 1976
Продолжительность: 03:08:01 (01:02:47 + 01:02:05 + 01:03:09)

Перевод: Не требуется
Cубтитры: нет
Оригинальная аудиодорожка: русский

Режиссер: Александр Игишев

В ролях:
Леонид Рисов, Таня Григоренко, Вадим Мадянов, Владимир Корецкий, Наталья Фатеева, Анатолий Грачёв, Юрий Астафьев, Геннадий Чулков, Игорь Соколов, Павел Винник, Владимир Самойлов, Сергей Яковлев, Ангелина Степанова, Арнольд Помазан, Александр Мовчан, Владимир Станкевич...
Полный список актёров

Описание:
Приключенческий телесериал для детей. По мотивам одноименной повести Аркадия Гайдара.
Барабанщик пионерского отряда Сережа Щербачёв попадает в беду. Легкомыслие мачехи приводит отца Сережи на скамью подсудимых. Мальчика пытаются использовать в своих целях уголовные элементы и агент иностранной разведки...

Источник: DVB
Качество видео: SATRip
Формат видео: AVI

Видео: 704x528 (4:3), 25 fps, XviD ~ 2010 kbps avg, 0.216 bit/pixel
Аудио: 48 kHz, Dolby Digital AC3 2.0, 192 kbps

Раздача от:
Общее
Полное имя : Sudba.barabanshhika.1976.DVDRip_[New-team]_by_AVP_Studio\02.avi
Формат : AVI
Формат/Информация : Audio Video Interleave
Размер файла : 918 Мбайт
Продолжительность : 1 ч. 2 м.
Общий поток : 2066 Кбит/сек
Программа кодирования : VirtualDubMod 1.5.10.3 | www.virtualdub-fr.org || (build 2550/release)
Библиотека кодирования : VirtualDubMod build 2550/release

Видео
Идентификатор : 0
Формат : MPEG-4 Visual
Профиль формата : Advanced Simple@L5
Параметр BVOP формата : 1
Параметр QPel формата : Нет
Параметр GMC формата : Без точки перехода
Параметр матрицы формата : Выборочная
Идентификатор кодека : XVID
Идентификатор кодека/Подсказка : XviD
Продолжительность : 1 ч. 2 м.
Битрейт : 2010 Кбит/сек
Ширина : 704 пикселя
Высота : 528 пикселей
Соотношение сторон : 4:3
Частота кадров : 25,000 кадров/сек
Цветовое пространство : YUV
Субдискретизация насыщенности : 4:2:0
Битовая глубина : 8 бит
Тип развёртки : Прогрессивная
Метод сжатия : С потерями
Бит/(Пиксели*Кадры) : 0.216
Размер потока : 893 Мбайт (97%)
Библиотека кодирования : XviD 1.2.1 (UTC 2008-12-04)

Аудио
Идентификатор : 1
Формат : AC-3
Формат/Информация : Audio Coding 3
Расширение режима : CM (complete main)
Параметр Endianness формата : Big
Идентификатор кодека : 2000
Продолжительность : 16 м.
Продолжительность оригинала : 16 м.
Вид битрейта : Постоянный
Битрейт : 192 Кбит/сек
Каналы : 2 канала
Расположение каналов : Front: L R
Частота : 48,0 КГц
Частота кадров : 31,250 кадров/сек (1536 spf)
Метод сжатия : С потерями
Размер потока : 22,4 Мбайт (2%)
Выравнивание : Разделение по промежуткам
Продолжительность промежутка : 153 мс. (3,82 видеокадра)
Время предзагрузки промежутка : 500 мс
pb.wtf



Скачать Судьба барабанщика 1-3 из 3 через торрент http://s020.radikal.ru/i715/1605/f4/7b4bff01b646.png Скачать фильм Судьба барабанщика 1-3 из 3 через торрент бесплантно в хорошем качестве Описание:Приключенческий телесериал для детей. По мотивам одноименной повести Аркадия Гайдара.Барабанщик пионерского отряда Сережа Щербачёв ... 10 10 1
Info! Золотая раздача, скачанное не засчитывается.
Торрент: Зарегистрирован [2016-05-05 07:35] · скачан: 18 раз
Статус: √ проверено
Размер: 2.84 GB
Как cкачать? Как скачать Судьба барабанщика 1-3 из 3 через торрент | qTorrent

% Раздел Тема Автор DL S | L
Наши сериалы [ 2.91 GB ] Судьба барабанщика 1-3 из 3 [1976 СССР детский SATRip-AVC от AVP Studio] AVP Studio Скачать
1 | 0
Наши сериалы [ 1.46 GB ] Судьба барабанщика 1-3 из 3 [1976 СССР детский SATRip от AVP Studio] AVP Studio Скачать
1 | 0

28-11-2019 20:33  

Отключить всю рекламу на сайте

    Дорогой пользователь! Огромная просьба, поблагодарите релизера, оцените раздачу и оставьте свои комментарий, если Вы скачали Судьба барабанщика 1-3 из 3 через торрент бесплатно! Внесите свою лепту в развитие PiratBit!
    Комментировать посты могут только пользователи прошедшие не сложную регистрацию
    Показать сообщения:    

    Судьба барабанщика 1-3 из 3 через торрент
    Скачать бесплатно Судьба барабанщика 1-3 из 3
    Судьба барабанщика 1-3 из 3 скачать торрент
    Судьба барабанщика 1-3 из 3 смотреть онлайн
    Cкачать фильм Судьба барабанщика 1-3 из 3 бесплатно
    Судьба барабанщика 1-3 из 3 скачать торрент в хорошем качестве
    Судьба барабанщика 1-3 из 3 смотреть онлайн бесплатно в хорошем качестве


    Вы не можете начинать темы
    Вы не можете отвечать на сообщения
    Вы не можете редактировать свои сообщения
    Вы не можете удалять свои сообщения
    Вы не можете голосовать в опросах
    Вы не можете прикреплять файлы к сообщениям
    Вы можете скачивать файлы