Ссылка на приватное зеркало нашего сайта всего за 1$. Внимание количество ограничено!!!

2 сезон

iTunes

1 сезон

1

iTunes

iTunes

iTunes

1 сезон

RePack

30

ИГРА 18+

pack

ВАЖНО

!!Акция!!

Alien_RageХит недели

RePack

MK11
pack

Забери бонус

RePack

jed

!!Акция!!

Alien_Rage

RePack

fifa19

RePack

Assassins Creed: Odyssey

RePack

NEED FOR SPEED™ PAYBACK

4 сезон

9 сезон

Бесстыжие 9 сезон

Все сериалы

все сериалы на PB.wtf

RePack

FAR CRY 5
  

Судьба барабанщика 1-3 из 3 (Александр Игишев) [1976, СССР, детский, приключения, SATRip-AVC от AVP Studio] pb.wtf

Судьба барабанщика 1-3 из 3 через торрент pb.wtf

Размер: 2.91 GB | Добавлен: 4 года 5 мес. назад | Торрент скачан:41 раз
Скачать  

05-05-2016 07:37 Судьба барабанщика 1-3 из 3 Скачать торрент  

Судьба барабанщика
Страна: СССР
Производство: Одесская киностудия

Жанр: детский, приключения
Год выпуска: 1976
Продолжительность: 03:08:01 (01:02:47 + 01:02:05 + 01:03:09)

Перевод: Не требуется
Cубтитры: нет
Оригинальная аудиодорожка: русский

Режиссер: Александр Игишев

В ролях:
Леонид Рисов, Таня Григоренко, Вадим Мадянов, Владимир Корецкий, Наталья Фатеева, Анатолий Грачёв, Юрий Астафьев, Геннадий Чулков, Игорь Соколов, Павел Винник, Владимир Самойлов, Сергей Яковлев, Ангелина Степанова, Арнольд Помазан, Александр Мовчан, Владимир Станкевич...
Полный список актёров

Описание:
Приключенческий телесериал для детей. По мотивам одноименной повести Аркадия Гайдара.
Барабанщик пионерского отряда Сережа Щербачёв попадает в беду. Легкомыслие мачехи приводит отца Сережи на скамью подсудимых. Мальчика пытаются использовать в своих целях уголовные элементы и агент иностранной разведки...

Источник: DVB
Качество видео: SATRip-AVC
Формат видео: MKV

Видео: 704->758x568 (4:3), 25 fps, H264 ~ 2020 kbps avg, 0.202 bit/pixel
Аудио: 48 kHz, Dolby Digital AC3 2.0, 192 kbps

Раздача от:
Общее
Полное имя : Sudba.barabanshhika.1976.DVDRip-AVC_[New-team]_by_AVP_Studio\01.mkv
Формат : Matroska
Версия формата : Version 2
Размер файла : 994 Мбайт
Продолжительность : 1 ч. 2 м.
Общий поток : 2214 Кбит/сек
Дата кодирования : UTC 2016-05-04 22:52:46
Программа кодирования : mkvmerge v6.1.0 ('Old Devil') built on Mar 4 2013 09:10:42
Библиотека кодирования : libebml v1.3.0 + libmatroska v1.4.0

Видео
Идентификатор : 1
Формат : AVC
Формат/Информация : Advanced Video Codec
Профиль формата : High@L4.1
Параметр CABAC формата : Да
Параметр ReFrames формата : 10 кадров
Идентификатор кодека : V_MPEG4/ISO/AVC
Продолжительность : 1 ч. 2 м.
Битрейт : 2020 Кбит/сек
Ширина : 704 пикселя
Высота : 568 пикселей
Соотношение сторон : 4:3
Режим частоты кадров : Постоянный
Частота кадров : 25,000 кадров/сек
Цветовое пространство : YUV
Субдискретизация насыщенности : 4:2:0
Битовая глубина : 8 бит
Тип развёртки : Прогрессивная
Бит/(Пиксели*Кадры) : 0.202
Размер потока : 888 Мбайт (89%)
Библиотека кодирования : x264 core 148 r2597 e86f3a1
Настройки программы : cabac=1 / ref=10 / deblock=1:-2:-1 / analyse=0x3:0x113 / me=umh / subme=10 / psy=1 / psy_rd=1.00:0.00 / mixed_ref=1 / me_range=32 / chroma_me=1 / trellis=2 / 8x8dct=1 / cqm=0 / deadzone=21,11 / fast_pskip=1 / chroma_qp_offset=-2 / threads=6 / lookahead_threads=1 / sliced_threads=0 / nr=0 / decimate=0 / interlaced=0 / bluray_compat=0 / constrained_intra=0 / bframes=8 / b_pyramid=2 / b_adapt=2 / b_bias=0 / direct=3 / weightb=1 / open_gop=0 / weightp=2 / keyint=250 / keyint_min=25 / scenecut=40 / intra_refresh=0 / rc=2pass / mbtree=0 / bitrate=2020 / ratetol=1.0 / qcomp=0.60 / qpmin=0 / qpmax=69 / qpstep=4 / cplxblur=20.0 / qblur=0.5 / ip_ratio=1.40 / pb_ratio=1.30 / aq=1:1.00
Default : Да
Forced : Нет

Аудио
Идентификатор : 2
Формат : AC-3
Формат/Информация : Audio Coding 3
Расширение режима : CM (complete main)
Параметр Endianness формата : Big
Идентификатор кодека : A_AC3
Продолжительность : 1 ч. 2 м.
Вид битрейта : Постоянный
Битрейт : 192 Кбит/сек
Каналы : 2 канала
Расположение каналов : Front: L R
Частота : 48,0 КГц
Частота кадров : 31,250 кадров/сек (1536 spf)
Метод сжатия : С потерями
Размер потока : 86,2 Мбайт (9%)
Default : Да
Forced : Нет
pb.wtf



Скачать Судьба барабанщика 1-3 из 3 через торрент http://s020.radikal.ru/i715/1605/f4/7b4bff01b646.png Скачать фильм Судьба барабанщика 1-3 из 3 через торрент бесплантно в хорошем качестве Описание:Приключенческий телесериал для детей. По мотивам одноименной повести Аркадия Гайдара.Барабанщик пионерского отряда Сережа Щербачёв ... 5.8 10 4
Info! Золотая раздача, скачанное не засчитывается.
Торрент: Зарегистрирован [2016-05-05 07:37] · скачан: 41 раз
Статус: √ проверено
Размер: 2.91 GB
Как cкачать? Как скачать Судьба барабанщика 1-3 из 3 через торрент | qTorrent

% Раздел Тема Автор DL S | L
Наши сериалы [ 1.46 GB ] Судьба барабанщика 1-3 из 3 [1976 СССР детский SATRip от AVP Studio] AVP Studio Скачать
1 | 0
Наши сериалы [ 2.84 GB ] Судьба барабанщика 1-3 из 3 [1976 СССР детский SATRip от AVP Studio] AVP Studio Скачать
1 | 0

28-11-2019 20:33  

Отключить всю рекламу на сайте

    Дорогой пользователь! Огромная просьба, поблагодарите релизера, оцените раздачу и оставьте свои комментарий, если Вы скачали Судьба барабанщика 1-3 из 3 через торрент бесплатно! Внесите свою лепту в развитие PiratBit!
    Комментировать посты могут только пользователи прошедшие не сложную регистрацию
    Показать сообщения:    

    Судьба барабанщика 1-3 из 3 через торрент
    Скачать бесплатно Судьба барабанщика 1-3 из 3
    Судьба барабанщика 1-3 из 3 скачать торрент
    Судьба барабанщика 1-3 из 3 смотреть онлайн
    Cкачать фильм Судьба барабанщика 1-3 из 3 бесплатно
    Судьба барабанщика 1-3 из 3 скачать торрент в хорошем качестве
    Судьба барабанщика 1-3 из 3 смотреть онлайн бесплатно в хорошем качестве


    Вы не можете начинать темы
    Вы не можете отвечать на сообщения
    Вы не можете редактировать свои сообщения
    Вы не можете удалять свои сообщения
    Вы не можете голосовать в опросах
    Вы не можете прикреплять файлы к сообщениям
    Вы можете скачивать файлы