Ссылка на приватное зеркало нашего сайта всего за 1$. Внимание количество ограничено!!!

2 сезон

iTunes

1 сезон

1

2 сезон

2 сезон

iTunes

1 сезон

RePack

30

Новинка

ВАЖНО

ИГРА 18+

pack

RePack

MK11
pack

Забери бонус

RePack

jed

!!Акция!!

Alien_Rage

RePack

fifa19

RePack

Assassins Creed: Odyssey

RePack

NEED FOR SPEED™ PAYBACK

4 сезон

9 сезон

Бесстыжие 9 сезон

Все сериалы

все сериалы на PB.wtf

RePack

FAR CRY 5
  

Тайны Лауры / The Mysteries of Laura / Сезон: 1-2 / Серии: 1-38 из 38 (Майкл Шульц, Чери Ноулан, Бетани Руни) [2014-2015, комедия, детектив, криминал, WEB-DLRip] MVO (FOX Life) pb.wtf

Тайны Лауры через торрент pb.wtf

Размер: 21.8 GB | Добавлен: 4 года 7 мес. назад | Торрент скачан:17 раз
Скачать  

05-05-2016 15:27 Тайны Лауры Скачать торрент  

Тайны Лауры / The Mysteries of Laura 1 сезон - 22 серии
2 сезон - 16 серий
Описание: Лаура Даймонд - блестящий детектив из отдела убийств департамента полиции Нью-Йорка. Каждый день ей приходится справляться не только со своей нелегкой работой, но и с сумасшедшей семейной жизнью - у нее двое непослушных мальчиков-близнецов и муж-полицейский, с которым они вот-вот должны развестись.
Тайны Лауры / The Mysteries of Laura
1 сезон


Год выпуска: 2014
Страна: США
Жанр: комедия, криминал, детектив
Продолжительность: ~00:42:00 серия.
Перевод: Профессиональный многоголосый - FOX Life
В ролях: Дебра Мессинг (Laura Diamond), Джош Лукас (Jake Broderick), Лас Алонсо (Billy Soto), Янина Гаванкар (Meredith Bose), Макс Дженкинс (Max Carnegie), Марк Уэбстер (Reynaldo West), Charlie Reina (Nicholas Broderick), Vincent Reina (Harrison Broderick), Калли Торн (Captain Nancy Santiani), Алисия Джой Пауэлл (Alicia), Нил Бледсо (Tony Abbott), Мэг Чэмберс Стидл (Francesca «Frankie» Pulaski)
Описание:
Лаура Даймонд - блестящий детектив из отдела убийств департамента полиции Нью-Йорка. Каждый день ей приходится справляться не только со своей нелегкой работой, но и с сумасшедшей семейной жизнью - у нее двое непослушных мальчиков-близнецов и муж-полицейский, с которым они вот-вот должны развестись.
Рейтинг:

Качество: WEB-DLRip
Формат: AVI
Видео кодек: XviD
Аудио кодек: AC3
Видео: XviD, 720x400 (16:9), 1800 kbps, 25 fps, 0,250 bpp
Аудио: AC3 / 2.0 / 48 kHz / 192 kbps / 16 bit

Код:

General
Complete name                            : C:\Users\tut\Desktop\закаченое\The.Mysteries.of.Laura.2014.web-dlrip_[teko]\s01e01_Pilot.avi
Format                                   : AVI
Format/Info                              : Audio Video Interleave
File size                                : 588 MiB
Duration                                 : 41mn 4s
Overall bit rate                         : 2 002 Kbps
Writing application                      : VirtualDubMod 1.5.10.3 | www.virtualdub-fr.org || (build 2550/release)
Writing library                          : VirtualDubMod build 2550/release

Video
ID                                       : 0
Format                                   : MPEG-4 Visual
Format profile                           : Advanced Simple@L5
Format settings, BVOP                    : 2
Format settings, QPel                    : No
Format settings, GMC                     : No warppoints
Format settings, Matrix                  : Custom
Codec ID                                 : XVID
Codec ID/Hint                            : XviD
Duration                                 : 41mn 4s
Bit rate                                 : 1 800 Kbps
Width                                    : 720 pixels
Height                                   : 400 pixels
Display aspect ratio                     : 16:9
Frame rate                               : 25.000 fps
Color space                              : YUV
Chroma subsampling                       : 4:2:0
Bit depth                                : 8 bits
Scan type                                : Progressive
Compression mode                         : Lossy
Bits/(Pixel*Frame)                       : 0.250
Stream size                              : 529 MiB (90%)
Writing library                          : XviD 73

Audio
ID                                       : 1
Format                                   : AC-3
Format/Info                              : Audio Coding 3
Mode extension                           : CM (complete main)
Codec ID                                 : 2000
Duration                                 : 41mn 4s
Bit rate mode                            : Constant
Bit rate                                 : 192 Kbps
Channel(s)                               : 2 channels
Channel positions                        : Front: L R
Sampling rate                            : 48.0 KHz
Bit depth                                : 16 bits
Compression mode                         : Lossy
Stream size                              : 56.4 MiB (10%)
Alignment                                : Split accross interleaves
Interleave, duration                     : 40 ms (1.00 video frame)
Interleave, preload duration             : 500 ms

Автор рипа: teko

скриншот   скриншот   скриншот   скриншот   скриншот   скриншот   скриншот   скриншот  
Тайны Лауры / The Mysteries of Laura
2 сезон


Год выпуска: 2015
Страна: США
Жанр: комедия, криминал, детектив
Продолжительность: ~00:42:00 серия.
Перевод: Профессиональный многоголосый - FOX Life
В ролях: Дебра Мессинг (Laura Diamond), Джош Лукас (Jake Broderick), Лас Алонсо (Billy Soto), Янина Гаванкар (Meredith Bose), Макс Дженкинс (Max Carnegie), Марк Уэбстер (Reynaldo West), Charlie Reina (Nicholas Broderick), Vincent Reina (Harrison Broderick), Калли Торн (Captain Nancy Santiani), Алисия Джой Пауэлл (Alicia), Нил Бледсо (Tony Abbott), Мэг Чэмберс Стидл (Francesca «Frankie» Pulaski)
Описание:
Лаура Даймонд - блестящий детектив из отдела убийств департамента полиции Нью-Йорка. Каждый день ей приходится справляться не только со своей нелегкой работой, но и с сумасшедшей семейной жизнью - у нее двое непослушных мальчиков-близнецов и муж-полицейский, с которым они вот-вот должны развестись.
Рейтинг:

Качество: WEB-DLRip
Формат: AVI
Видео кодек: XviD
Аудио кодек: AC3
Видео: XviD, 720x400 (16:9), 1800 kbps, 25 fps, 0,250 bpp
Аудио: AC3 / 2.0 / 48 kHz / 192 kbps / 16 bit

Код:

Общее
Полное имя                               : H:\Тайны Лоры\s02\s02e01_The.Mystery.of.the.Taken.Boy.avi
Формат                                   : AVI
Формат/Информация                        : Audio Video Interleave
Размер файла                             : 590 Мбайт
Продолжительность                        : 41 м.
Общий поток                              : 2001 Кбит/сек
Программа кодирования                    : VirtualDubMod 1.5.10.3 | www.virtualdub-fr.org || (build 2550/release)
Библиотека кодирования                   : VirtualDubMod build 2550/release

Видео
Идентификатор                            : 0
Формат                                   : MPEG-4 Visual
Профиль формата                          : Advanced Simple@L5
Параметр BVOP формата                    : 2
Параметр QPel формата                    : Нет
Параметр GMC формата                     : Без точки перехода
Параметр матрицы формата                 : Выборочная
Идентификатор кодека                     : XVID
Идентификатор кодека/Подсказка           : XviD
Продолжительность                        : 41 м.
Битрейт                                  : 1800 Кбит/сек
Ширина                                   : 720 пикселей
Высота                                   : 400 пикселей
Соотношение сторон                       : 16:9
Частота кадров                           : 25,000 кадров/сек
Цветовое пространство                    : YUV
Субдискретизация насыщенности            : 4:2:0
Битовая глубина                          : 8 бит
Тип развёртки                            : Прогрессивная
Метод сжатия                             : С потерями
Бит/(Пиксели*Кадры)                      : 0.250
Размер потока                            : 530 Мбайт (90%)
Библиотека кодирования                   : XviD 73

Аудио
Идентификатор                            : 1
Формат                                   : AC-3
Формат/Информация                        : Audio Coding 3
Расширение режима                        : CM (complete main)
Параметр Endianness формата              : Big
Идентификатор кодека                     : 2000
Продолжительность                        : 41 м.
Вид битрейта                             : Постоянный
Битрейт                                  : 192 Кбит/сек
Каналы                                   : 2 канала
Расположение каналов                     : Front: L R
Частота                                  : 48,0 КГц
Частота кадров                           : 31,250 кадров/сек (1536 spf)
Метод сжатия                             : С потерями
Размер потока                            : 56,6 Мбайт (10%)
Выравнивание                             : Разделение по промежуткам
Продолжительность промежутка             : 40  мс. (1,00 видеокадр)
Время предзагрузки промежутка            : 500  мс.

Автор рипа: teko

скриншот   скриншот   скриншот   скриншот   скриншот   скриншот   скриншот   скриншот  
pb.wtf



Скачать Тайны Лауры через торрент http://pic1.kartinco.top/images/10/o1laz.jpg Скачать фильм Тайны Лауры через торрент бесплантно в хорошем качестве Описание: Лаура Даймонд - блестящий детектив из отдела убийств департамента полиции Нью-Йорка. Каждый день ей приходится справляться не ... 10 10 6
Info! Золотая раздача, скачанное не засчитывается.
Торрент: Зарегистрирован [2016-05-05 15:27] · скачан: 17 раз
Статус: √ проверено
Размер: 21.8 GB
Как cкачать? Как скачать Тайны Лауры через торрент | qTorrent

28-11-2019 20:33  

Отключить всю рекламу на сайте

05-05-2016 15:33 Тайны Лауры Скачать торрент  

Уважаемые модераторы, пожалуйста перетащите релиз в "зарубежные сериалы" если всё правильно оформлено, спасибко pb.wtf



05-05-2016 17:31 Тайны Лауры Скачать торрент  

Serejechka, http://pb.wtf/topic/60084/

Цитата:

Каждый сезон оформляется отдельно и прячется в спойлер.

Оформление поправил в соответствии с действующими правилами.
Спасибо за раздачу.pb.wtf



    Дорогой пользователь! Огромная просьба, поблагодарите релизера, оцените раздачу и оставьте свои комментарий, если Вы скачали Тайны Лауры через торрент бесплатно! Внесите свою лепту в развитие PiratBit!
    Комментировать посты могут только пользователи прошедшие не сложную регистрацию
    Показать сообщения:    

    Тайны Лауры через торрент
    Скачать бесплатно Тайны Лауры
    Тайны Лауры скачать торрент
    Тайны Лауры смотреть онлайн
    Cкачать фильм Тайны Лауры бесплатно
    Тайны Лауры скачать торрент в хорошем качестве
    Тайны Лауры смотреть онлайн бесплатно в хорошем качестве


    Вы не можете начинать темы
    Вы не можете отвечать на сообщения
    Вы не можете редактировать свои сообщения
    Вы не можете удалять свои сообщения
    Вы не можете голосовать в опросах
    Вы не можете прикреплять файлы к сообщениям
    Вы можете скачивать файлы