Ссылка на приватное зеркало нашего сайта всего за 1$. Внимание количество ограничено!!!

2 сезон

iTunes

1 сезон

1

2 сезон

2 сезон

iTunes

1 сезон

RePack

30

Ultimate

ВАЖНО

ИГРА 18+

pack

RePack

MK11
pack

Забери бонус

RePack

jed

!!Акция!!

Alien_Rage

RePack

fifa19

RePack

Assassins Creed: Odyssey

RePack

NEED FOR SPEED™ PAYBACK

4 сезон

9 сезон

Бесстыжие 9 сезон

Все сериалы

все сериалы на PB.wtf

RePack

FAR CRY 5
  

Подозреваемый / В поле зрения / Person of Interest / Сезон: 5 / Cерии 1-5 из 13 (Ричард Дж. Льюис) [2016,боевик, триллер, драма , WEB-DLRip-AVC] MVO [NewStudio] pb.wtf

Подозреваемый через торрент pb.wtf

Размер: 4.19 GB | Добавлен: 4 года 6 мес. назад | Торрент скачан:15 раз
Скачать  

06-05-2016 00:28 Подозреваемый Скачать торрент  


Подозреваемый / В поле зрения / Person of Interest

«Когда-нибудь думали, что за Вами наблюдают?»


  • Год выпуска: 2016
  • Страна: США
  • Жанр: фантастика, боевик, триллер, драма, детектив
  • Продолжительность: 00:43:53 (Серия)
  • Перевод: Профессиональный многоголосый закадровый
  • В ролях:

    Джеймс Кэвизел (John Reese), Кевин Чэпмен (Detective Lionel Fusco), Майкл Эмерсон (Harold Finch), Тараджи П. Хенсон (Joss Carter), Эми Акер (Root), Сара Шахи (Sameen Shaw), Роберт Джон Бёрк (Officer Patrick Simmons), Борис МакГайвер (Hersh), Ал Сапиенца (Detective Raymond Terney), Энрико Колантони (Carl Elias), Джон Нолан (John Greer), Кларк Питерс (Alonzo Quinn)

  • Описание:
    Предполагаемо погибший бывший агент ЦРУ Риз объединяется с таинственным миллионером чтобы предотвращать преступления. Подготовка Риза в проведении операций под прикрытием привлекает внимание миллионера Финча, гения-программиста, который изобрел программу, позволяющую предсказывать преступные склонности людей на базе анализа поведения. Используя последние достижения техники, эти двое часто преступают закон, используя навыки Риза и бесконечное богатство Финча, и останавливают преступников еще до совершения преступления. Действия Риза привлекают к себе внимание детектива Картер из отдела убийств и полицейского Фаско, которого Риз использует в своих целях. Риз и Финч понимают, что правильный человек с правильной информацией в нужное время и в нужном месте может изменить все.
  • Рейтинг:



  • Качество: WEB-DLRip-AVC
  • Формат: :MPEG-4
  • Видео кодек: AVC
  • Аудио кодек: AC-3
  • Видео: 2006 Кбит/сек, 1024*576 (16:9), в 23,976 кадра/сек, AVC
  • Аудио №1: Русский 384 Кбит/сек, 48,0 КГц, 16 бит, 6 каналов, AC-3
  • Аудио №2: Английский 384 Кбит/сек, 48,0 КГц, 16 бит, 6 каналов, AC-3
  • Релиз от: GEKADOL

    Код:

    Внимание! Раздача ведётся путём добавления новых серий; при каждом добавлении создаётся новый торрент. Чтобы начать докачку новой серии, пользователям необходимо сделать следующее:
    (1) остановить скачивание,
    (2) удалить старый торрент у себя из клиента (старые серии удалять не надо),
    (3) скачать новый торрент и запустить его у себя в клиенте вместо старого, при этом указать клиенту путь в старую папку куда и должно происходить скачивание новых серий.
    Ваш клиент при этом должен произвести хеширование (проверку) старой папки (если не производит сам - помогите ему сделать это), и будет докачивать только те серии которых у вас ещё нет. Старые серии при этом не удаляются, а продолжают раздаваться!
    Eсли вы уже удалили старые серии, то предотвратить повторную закачку старых серий можно, отжав галочку в соответсвующих местах при запуске нового торрента. По возможности, желательно не удалять старые серии как можно дольше чтобы релизёр не столько продолжал раздавать старые серии, а смог сконцентрироваться на новых.


    Код:

    Общее
    Полное имя                               : H:\В поле зрения (Сезон 5)\Person.of.Interest.s05e01.WEB-DLRip-AVC.NewStudio.TV.mp4
    Формат                                   : MPEG-4
    Профиль формата                          : Base Media
    Идентификатор кодека                     : isom (isom/iso2/avc1/mp41)
    Размер файла                             : 851 Мбайт
    Продолжительность                        : 42 м.
    Общий поток                              : 2780 Кбит/сек
    Программа кодирования                    : XviD4PSP 7.0.260 DAILY
    HDVideo                                  : Yes
    encoding_info                            : MATROSKA / WEBM > MP4 / H264 > X264 CBR 2200kbps HQ / AC3 > AC3 CBR 384kbps Custom / AC3 > AC3 CBR 384kbps Custom

    Видео
    Идентификатор                            : 1
    Формат                                   : AVC
    Формат/Информация                        : Advanced Video Codec
    Профиль формата                          : High@L5.2
    Параметр CABAC формата                   : Да
    Параметр ReFrames формата                : 4 кадра
    Идентификатор кодека                     : avc1
    Идентификатор кодека/Информация          : Advanced Video Coding
    Продолжительность                        : 42 м.
    Битрейт                                  : 2006 Кбит/сек
    Номинальный битрейт                      : 2200 Кбит/сек
    Ширина                                   : 1024 пикселя
    Высота                                   : 576 пикселей
    Соотношение сторон                       : 16:9
    Режим частоты кадров                     : Переменный
    Частота кадров                           : 23,976 кадра/сек
    Цветовое пространство                    : YUV
    Субдискретизация насыщенности            : 4:2:0
    Битовая глубина                          : 8 бит
    Тип развёртки                            : Прогрессивная
    Бит/(Пиксели*Кадры)                      : 0.142
    Размер потока                            : 614 Мбайт (72%)
    Библиотека кодирования                   : x264 core 148 r2694M 3b70645
    Настройки программы                      : cabac=1 / ref=3 / deblock=1:-1:-1 / analyse=0x3:0x133 / me=hex / subme=7 / psy=1 / psy_rd=1.00:0.20 / mixed_ref=1 / me_range=16 / chroma_me=1 / trellis=1 / 8x8dct=1 / cqm=0 / deadzone=21,11 / fast_pskip=1 / chroma_qp_offset=-3 / threads=5 / lookahead_threads=1 / sliced_threads=0 / nr=0 / decimate=1 / interlaced=0 / bluray_compat=0 / constrained_intra=0 / bframes=3 / b_pyramid=2 / b_adapt=2 / b_bias=0 / direct=3 / weightb=1 / open_gop=0 / weightp=2 / keyint=230 / keyint_min=23 / scenecut=40 / intra_refresh=0 / rc_lookahead=40 / rc=cbr / mbtree=1 / bitrate=2200 / ratetol=1.0 / qcomp=0.60 / qpmin=0 / qpmax=69 / qpstep=4 / vbv_maxrate=2200 / vbv_bufsize=2200 / nal_hrd=none / filler=0 / ip_ratio=1.40 / aq=1:1.00
    Язык                                     : English
    Цветовой диапазон                        : Limited
    Основные цвета                           : BT.709
    Характеристики трансфера                 : BT.709
    Коэффициенты матрицы                     : BT.709

    Аудио #1
    Идентификатор                            : 2
    Формат                                   : AC-3
    Формат/Информация                        : Audio Coding 3
    Расширение режима                        : CM (complete main)
    Параметр Endianness формата              : Big
    Идентификатор кодека                     : ac-3
    Продолжительность                        : 42 м.
    Вид битрейта                             : Постоянный
    Битрейт                                  : 384 Кбит/сек
    Каналы                                   : 6 каналов
    Расположение каналов                     : Front: L C R, Side: L R, LFE
    Частота                                  : 48,0 КГц
    Частота кадров                           : 31,250 кадров/сек (1536 spf)
    Битовая глубина                          : 16 бит
    Метод сжатия                             : С потерями
    Размер потока                            : 118 Мбайт (14%)
    Заголовок                                : NewStudio.TV / NewStudio.TV
    Язык                                     : Russian
    Default                                  : Да
    Alternate group                          : 1

    Аудио #2
    Идентификатор                            : 3
    Формат                                   : AC-3
    Формат/Информация                        : Audio Coding 3
    Расширение режима                        : CM (complete main)
    Параметр Endianness формата              : Big
    Идентификатор кодека                     : ac-3
    Продолжительность                        : 42 м.
    Вид битрейта                             : Постоянный
    Битрейт                                  : 384 Кбит/сек
    Каналы                                   : 6 каналов
    Расположение каналов                     : Front: L C R, Side: L R, LFE
    Частота                                  : 48,0 КГц
    Частота кадров                           : 31,250 кадров/сек (1536 spf)
    Битовая глубина                          : 16 бит
    Метод сжатия                             : С потерями
    Размер потока                            : 118 Мбайт (14%)
    Язык                                     : English
    Default                                  : Нет
    Alternate group                          : 1




    Скриншоты:
    скриншот   скриншот   скриншот   скриншот   скриншот   скриншот   скриншот  
    скриншот  

    Раздача ведётся путём добавления новых серий. Добавлена 5 серия (20.05.2016).Просьба перекачать торрент файл.

    pb.wtf



  • Скачать Подозреваемый через торрент http://pic1.kartinco.top/images/10/qkuky.jpg Скачать фильм Подозреваемый через торрент бесплантно в хорошем качестве Описание: Предполагаемо погибший бывший агент ЦРУ Риз объединяется с таинственным миллионером чтобы предотвращать преступления. Подготовка ... 9.6 10 9
    Info! Серебряная раздача, засчитывается только 50% скачанного.
    Торрент: Зарегистрирован [2016-05-20 01:37] · скачан: 15 раз
    Статус: √ проверено
    Размер: 4.19 GB
    Как cкачать? Как скачать Подозреваемый через торрент | qTorrent



    Последний раз редактировалось: GEKADOL (2016-05-20 01:37), всего редактировалось 5 раз(а)

    28-11-2019 20:33  

    Отключить всю рекламу на сайте

    06-05-2016 03:54 Подозреваемый Скачать торрент  

    Только появился.Обещали ещё осенью выйдет.уже забыл про него pb.wtf



    06-05-2016 06:39 Подозреваемый Скачать торрент  

    а говорили, что усё, рейтинги упали. кина не будет- электричество кончилось. Спасибо!pb.wtf



    06-05-2016 07:13 Подозреваемый Скачать торрент  

    Финальный сезон) pb.wtf



    06-05-2016 07:23 Подозреваемый Скачать торрент  

    GEKADOL писал(а):

    Финальный сезон)

    Жаль сериал на мой взгляд неплохой и задумка хорошая.pb.wtf



    16-05-2016 22:07 Подозреваемый Скачать торрент  

    Дайте скоростиpb.wtf



      Дорогой пользователь! Огромная просьба, поблагодарите релизера, оцените раздачу и оставьте свои комментарий, если Вы скачали Подозреваемый через торрент бесплатно! Внесите свою лепту в развитие PiratBit!
      Комментировать посты могут только пользователи прошедшие не сложную регистрацию
      Показать сообщения:    

      Подозреваемый через торрент
      Скачать бесплатно Подозреваемый
      Подозреваемый скачать торрент
      Подозреваемый смотреть онлайн
      Cкачать фильм Подозреваемый бесплатно
      Подозреваемый скачать торрент в хорошем качестве
      Подозреваемый смотреть онлайн бесплатно в хорошем качестве


      Вы не можете начинать темы
      Вы не можете отвечать на сообщения
      Вы не можете редактировать свои сообщения
      Вы не можете удалять свои сообщения
      Вы не можете голосовать в опросах
      Вы не можете прикреплять файлы к сообщениям
      Вы можете скачивать файлы