Ссылка на приватное зеркало всего за 1$. Внимание количество ограничено!!!

iTunes

iTunes

iTunes

1

iTunes

iTunes

iTunes

iTunes

iTunes

30
pack

$ от Little Big

ВАЖНО

!!Акция!!

Alien_RageХит недели

RePack

Resident Evil 21

ИГРА 18+

pack

RePack

jed

!!Акция!!

Alien_Rage

RePack

fifa19

RePack

Assassins Creed: Odyssey

RePack

NEED FOR SPEED™ PAYBACK

4 сезон

9 сезон

Бесстыжие 9 сезон

Все сериалы

все сериалы на PB.wtf

RePack

FAR CRY 5
  

Доза реальности / Dose of Reality ( Кристофер Глатис) [2013, триллер, драма, детектив, WEB-DL 720p] MVO pb.wtf

Доза реальности через торрент pb.wtf

Размер: 2.31 GB | Добавлен: 4 года 2 мес. назад | Торрент скачан:44 раза
Скачать  

06-05-2016 07:34 Доза реальности Скачать торрент  

Доза реальности / Dose of Reality

Страна: США

Производство: 6A Films, Destiny Pictures

Год выпуска: 2013

Жанр: триллер, драма, детектив

Продолжительность: 01:33:07

Перевод: Профессиональный (многоголосый, закадровый) | официальный звук

Субтитры: английские

Режиссер: Кристофер Глатис

Автор сценария: Кристофер Глатис

В ролях: Файруза Балк, Рик Раванелло, Райан Мерриман, Таня Аллен, Джеймс Бэбсон, Кристофер Криса, Рон МакКой

Описание: Дерзкий менеджер Тони и обаятельный красавчик Мэтт за несколько минут до закрытия их бара находят окровавленную женщину без сознания...


Качество: WEB-DL 720p

Формат: МКV

Видео кодек: AVC

Аудио кодек: АС3

Видео: 1280x720, MPEG-4 AVC ~3 002 kbps avg, 23,976

Аудио №1: 48.0 kHz, AC3 Dolby Digital, 2/0 (L,R) ch, ~192.00 kbps | RUS

Аудио №2: 48.0 kHz, AC3 Dolby Digital, 3/2 (L,C,R,l,r) + LFE ch, ~384 kbps | ENG

Формат субтитров: UTF-8 Plain Text

Дата премьеры (мир): 28 февраля 2013

Общее
Уникальный идентификатор : 248118749062575195655235905010132839111 (0xBAA9EECFCE0FE959A6546AB3456FEAC7)
Полное имя : D:\Торент\Doza.realjnosti.2013.P.WEBL.720p.mkv
Формат : Matroska
Версия формата : Version 4 / Version 2
Размер файла : 2,31 Гбайт
Продолжительность : 1 ч. 33 м.
Общий поток : 3546 Кбит/сек
Дата кодирования : UTC 2016-05-05 15:13:43
Программа кодирования : mkvmerge v6.8.0 ('Theme for Great Cities') 64bit built on Mar 2 2014 21:34:26
Библиотека кодирования : libebml v1.3.0 + libmatroska v1.4.1

Видео
Идентификатор : 1
Формат : AVC
Формат/Информация : Advanced Video Codec
Профиль формата : High@L4.1
Параметр CABAC формата : Да
Параметр ReFrames формата : 5 кадров
Идентификатор кодека : V_MPEG4/ISO/AVC
Продолжительность : 1 ч. 33 м.
Битрейт : 3000 Кбит/сек
Ширина : 1280 пикселей
Высота : 720 пикселей
Соотношение сторон : 16:9
Режим частоты кадров : Постоянный
Частота кадров : 23,976 (24000/1001) кадра/сек
Цветовое пространство : YUV
Субдискретизация насыщенности : 4:2:0
Битовая глубина : 8 бит
Тип развёртки : Прогрессивная
Бит/(Пиксели*Кадры) : 0.136
Размер потока : 1,89 Гбайт (82%)
Библиотека кодирования : x264 core 130 r2273 b3065e6
Настройки программы : cabac=1 / ref=5 / deblock=1:0:0 / analyse=0x3:0x113 / me=umh / subme=8 / psy=1 / psy_rd=1.00:0.00 / mixed_ref=1 / me_range=16 / chroma_me=1 / trellis=1 / 8x8dct=1 / cqm=0 / deadzone=21,11 / fast_pskip=1 / chroma_qp_offset=-2 / threads=18 / lookahead_threads=3 / sliced_threads=0 / nr=0 / decimate=1 / interlaced=0 / bluray_compat=0 / constrained_intra=0 / bframes=3 / b_pyramid=2 / b_adapt=2 / b_bias=0 / direct=3 / weightb=1 / open_gop=0 / weightp=2 / keyint=240 / keyint_min=23 / scenecut=40 / intra_refresh=0 / rc_lookahead=50 / rc=abr / mbtree=1 / bitrate=3000 / ratetol=1.0 / qcomp=0.60 / qpmin=0 / qpmax=69 / qpstep=4 / ip_ratio=1.40 / aq=1:1.00
Язык : English
Default : Да
Forced : Нет

Аудио #1
Идентификатор : 2
Формат : AC-3
Формат/Информация : Audio Coding 3
Расширение режима : CM (complete main)
Параметр Endianness формата : Big
Идентификатор кодека : A_AC3
Продолжительность : 1 ч. 33 м.
Вид битрейта : Постоянный
Битрейт : 192 Кбит/сек
Каналы : 2 канала
Расположение каналов : Front: L R
Частота : 48,0 КГц
Частота кадров : 31,250 кадров/сек (1536 spf)
Метод сжатия : С потерями
Размер потока : 128 Мбайт (5%)
Язык : Russian
Default : Да
Forced : Да

Аудио #2
Идентификатор : 3
Формат : AC-3
Формат/Информация : Audio Coding 3
Расширение режима : CM (complete main)
Параметр Endianness формата : Big
Идентификатор кодека : A_AC3
Продолжительность : 1 ч. 33 м.
Вид битрейта : Постоянный
Битрейт : 384 Кбит/сек
Каналы : 6 каналов
Расположение каналов : Front: L C R, Side: L R, LFE
Частота : 48,0 КГц
Частота кадров : 31,250 кадров/сек (1536 spf)
Метод сжатия : С потерями
Размер потока : 256 Мбайт (11%)
Язык : English
Default : Нет
Forced : Нет

Текст
Идентификатор : 4
Формат : UTF-8
Идентификатор кодека : S_TEXT/UTF8
Идентификатор кодека/Информация : UTF-8 Plain Text
Язык : English
Default : Нет
Forced : Нет

Меню
00:00:00.000 : en:Chapter 01
00:09:41.000 : en:Chapter 02
00:18:58.000 : en:Chapter 03
00:29:19.000 : en:Chapter 04
00:39:45.000 : en:Chapter 05
00:49:05.000 : en:Chapter 06
00:58:12.000 : en:Chapter 07
01:09:05.000 : en:Chapter 08
01:20:53.000 : en:Chapter 09
01:30:09.000 : en:Chapter 10
pb.wtf



Скачать Доза реальности через торрент http://img10.lostpic.net/2016/05/06/0f2807be96e47f74b2c1b1053bf676e3.png Скачать фильм Доза реальности через торрент бесплантно в хорошем качестве Описание: Дерзкий менеджер Тони и обаятельный красавчик Мэтт за несколько минут до закрытия их бара находят окровавленную женщину без ... 10 10 2
Торрент: Зарегистрирован [2016-05-06 07:34] · скачан: 44 раз
Статус: T временная
Размер: 2.31 GB
Как cкачать? Как скачать Доза реальности через торрент | qTorrent

% Раздел Тема Автор DL S | L
T Фильмы 2013 [DVDrip, WEB-DLRip, HDrip] [ 1.37 GB ] Доза реальности / Dose of Reality [2013 WEB-DLRip] MVO Ворон Скачать
1 | 0

28-11-2019 20:33  

Отключить всю рекламу на сайте

    Дорогой пользователь! Огромная просьба, поблагодарите релизера, оцените раздачу и оставьте свои комментарий, если Вы скачали Доза реальности через торрент бесплатно! Внесите свою лепту в развитие PiratBit!
    Комментировать посты могут только пользователи прошедшие не сложную регистрацию
    Показать сообщения:    

    Доза реальности через торрент
    Скачать бесплатно Доза реальности
    Доза реальности скачать торрент
    Доза реальности смотреть онлайн
    Cкачать фильм Доза реальности бесплатно
    Доза реальности скачать торрент в хорошем качестве
    Доза реальности смотреть онлайн бесплатно в хорошем качестве


    Вы не можете начинать темы
    Вы не можете отвечать на сообщения
    Вы не можете редактировать свои сообщения
    Вы не можете удалять свои сообщения
    Вы не можете голосовать в опросах
    Вы не можете прикреплять файлы к сообщениям
    Вы можете скачивать файлы