новый адрес пиратбит piratbit
MEGA NEWS Получи личный уникальный адрес сайта и защити себя от блокировок. Внимание количество ограничено!!!

iTunes

1+1

iTunes

мы

iTunes

1

iTunes

Чернобыль

iTunes

Ральф против интернета

Лицензия

ПШазам

Лицензия

Игра престолов

Лицензия

30
pack

ВАЖНО

!!Акция!!

Alien_RageХит недели

RePack

Resident Evil 21

ИГРА 18+

pack

RePack

Metro:Exodus

!!Акция!!

Alien_Rage

RePack

fifa19

RePack

Assassins Creed: Odyssey

RePack

NEED FOR SPEED™ PAYBACK

3 сезон

9 сезон

Бесстыжие 9 сезон

Все сериалы

все сериалы на PB.wtf

RePack

FAR CRY 5
Ребята, катастрофически не хватает 1900р. для оплаты серверов за АВГУСТ (всвязи с блокировками трафик упал в 3 раза), 1-2р., выручайте.
  

Золотая вдова / Une veuve en or (Мишель Одиар) [1969 г., комедия, BDRip, Профессиональный (двухголосый)] pb.wtf

Золотая вдова через торрент pb.wtf

Размер: 745 MB | Добавлен: 3 года 5 мес. назад | Торрент скачан:25 раз
Скачать  

06-05-2016 11:25 Золотая вдова Скачать торрент  

Золотая вдова / Une veuve en or
Год выпуска: 1969
Страна: Италия, Франция, Германия (ФРГ)
Жанр: комедия
Продолжительность: 85 мин. / 01:29
Перевод: Профессиональный (двухголосый)

Режиссер: Мишель Одиар
Продюссер: Морис Жакин
Сценарий: Мишель Одиар, Жан-Мари Пуаре, Одетт Жойе

Премьера в мире: 24 октября 1969

IMDB 4.60 (38)



В ролях: Мишель Мерсье, Клод Риш, Роже Карель, Жан Карме, Даниэль Секкальди, Жан-Пьер Даррас, Марио Давид, Фолько Люлли, Андре Пусс, Сим

Описание: Жила-была молодая семья, Дельфина да Антуан, и были бы они счастливы и беззаботны, если бы ни одно обстоятельство. Богатый дядюшка оставил Дельфине огромное наследство, но с условием, чтоона получит деньги, если ее муж умрет. Антуан, конечно, симпатичный парень, но сумма слишком высока.Теперь его пытаются убить собственная жена, растяпа-киллер и даже команда головорезов. Где бы ни появился Антуан, трупы сыплются со всех сторон, а ему всени почем. Но как же все-таки получить деньги? Для этого муж и жена должны играть в одной команде...

Качество: BDRip
Формат: MKV
Видео кодек: H.264
Аудио кодек: AAC
Видео: AVC, 800x480 (1.667), 24.000 fps, 1 035 Kbps (0.112 bit/pixel)
Аудио#1: AAC LC, ~128 kbps, VBR, 48.0 KHz, 2 ch (Russian)

Общее
Уникальный идентификатор : 244074088470343476891118185182908264629 (0xB79EF5A5F284963280C896DC668230B5)
Формат : Matroska
Версия формата : Version 4 / Version 2
Размер файла : 745 Мбайт
Продолжительность : 1 ч. 29 м.
Общий поток : 1165 Кбит/сек
Дата кодирования : UTC 2016-05-06 10:09:52
Программа кодирования : mkvmerge v9.1.0 ('Little Earthquakes') 64bit
Библиотека кодирования : libebml v1.3.3 + libmatroska v1.4.4

Видео
Идентификатор : 1
Формат : AVC
Формат/Информация : Advanced Video Codec
Профиль формата : High@L4.1
Параметр CABAC формата : Да
Параметр ReFrames формата : 16 кадров
Идентификатор кодека : V_MPEG4/ISO/AVC
Продолжительность : 1 ч. 29 м.
Битрейт : 1035 Кбит/сек
Ширина : 800 пикселей
Высота : 480 пикселей
Соотношение сторон : 5:3
Режим частоты кадров : Постоянный
Частота кадров : 24,000 кадра/сек
Цветовое пространство : YUV
Субдискретизация насыщенности : 4:2:0
Битовая глубина : 8 бит
Тип развёртки : Прогрессивная
Бит/(Пиксели*Кадры) : 0.112
Размер потока : 662 Мбайт (89%)
Библиотека кодирования : x264 core 148 r2638 7599210
Настройки программы : cabac=1 / ref=16 / deblock=1:0:0 / analyse=0x3:0x133 / me=umh / subme=10 / psy=1 / psy_rd=1.00:0.00 / mixed_ref=1 / me_range=32 / chroma_me=1 / trellis=2 / 8x8dct=1 / cqm=0 / deadzone=21,11 / fast_pskip=1 / chroma_qp_offset=-2 / threads=6 / lookahead_threads=1 / sliced_threads=0 / nr=0 / decimate=1 / interlaced=0 / bluray_compat=0 / constrained_intra=0 / bframes=10 / b_pyramid=2 / b_adapt=2 / b_bias=0 / direct=3 / weightb=1 / open_gop=0 / weightp=2 / keyint=240 / keyint_min=24 / scenecut=40 / intra_refresh=0 / rc_lookahead=60 / rc=2pass / mbtree=0 / bitrate=1035 / ratetol=1.0 / qcomp=0.60 / qpmin=0 / qpmax=69 / qpstep=4 / cplxblur=20.0 / qblur=0.5 / vbv_maxrate=62500 / vbv_bufsize=78125 / nal_hrd=none / filler=0 / ip_ratio=1.40 / pb_ratio=1.30 / aq=1:1.00
Default : Да
Forced : Нет

Аудио
Идентификатор : 2
Формат : AAC
Формат/Информация : Advanced Audio Codec
Профиль формата : LC
Идентификатор кодека : A_AAC
Продолжительность : 1 ч. 29 м.
Битрейт : 128 Кбит/сек
Каналы : 2 канала
Расположение каналов : Front: L R
Частота : 48,0 КГц
Частота кадров : 46,875 кадров/сек (1024 spf)
Метод сжатия : С потерями
Задержка видео : 9 мс.
Размер потока : 81,8 Мбайт (11%)
Заголовок : Russian
Язык : Russian
Default : Да
Forced : Нет

Меню
00:00:00.054 : en:00:00:00.054

Золотая вдова скачать торрент

pb.wtf



Скачать Золотая вдова через торрент http://i73.fastpic.ru/big/2016/0304/16/90ef14a19be9dbd2f604b78c250dcd16.jpg Скачать фильм Золотая вдова через торрент бесплантно в хорошем качестве Описание: Жила-была молодая семья, Дельфина да Антуан, и были бы они счастливы и беззаботны, если бы ни одно обстоятельство. Богатый ... 10 10 2
Торрент: Зарегистрирован [2016-05-06 11:25] · скачан: 25 раз
Статус: √ проверено
Размер: 745 MB
Как cкачать? Как скачать Золотая вдова через торрент | qTorrent

% Раздел Тема Автор DL S | L
Фильмы [HD 720p, 1080p] (Хороший звук DUB, MVO) [ 10.74 GB ] Золотая вдова / Une veuve en or [1969 BDRip 1080p by msltel] DVO msltel Скачать
1 | 0
Фильмы [HD 720p, 1080p] (Хороший звук DUB, MVO) [ 3.4 GB ] Золотая вдова / Une veuve en or [1969 BDRip 720p by msltel] DVO msltel Скачать
1 | 0


>> Регистрируемся здесь <<






Отзывы и комментарии о схеме читаем и пишем здесь: ---> Отзывы и комментарии о схеме

Новые благодарочки в телеграм довольных пользователей:
скриншот   скриншот   скриншот   скриншот   скриншот
    Дорогой пользователь! Огромная просьба, поблагодарите релизера, оцените раздачу и оставьте свои комментарий, если Вы скачали Золотая вдова через торрент бесплатно! Внесите свою лепту в развитие PiratBit!
    Комментировать посты могут только пользователи прошедшие не сложную регистрацию
    Показать сообщения:    

    Золотая вдова через торрент
    Скачать бесплатно Золотая вдова
    Золотая вдова скачать торрент
    Золотая вдова смотреть онлайн
    Cкачать фильм Золотая вдова бесплатно
    Золотая вдова скачать торрент в хорошем качестве
    Золотая вдова смотреть онлайн бесплатно в хорошем качестве


    Вы не можете начинать темы
    Вы не можете отвечать на сообщения
    Вы не можете редактировать свои сообщения
    Вы не можете удалять свои сообщения
    Вы не можете голосовать в опросах
    Вы не можете прикреплять файлы к сообщениям
    Вы можете скачивать файлы