MEGA NEWS Получи личный уникальный адрес сайта и защити себя от блокировок. Внимание количество ограничено!!!

iTunes

1+1

iTunes

мы

iTunes

1

iTunes

Чернобыль

iTunes

Ральф против интернета

Лицензия

ПШазам

Лицензия

Игра престолов

Лицензия

30
pack

ВАЖНО

!!Акция!!

Alien_RageХит недели

RePack

Resident Evil 21

ИГРА 18+

pack

RePack

Metro:Exodus

!!Акция!!

Alien_Rage

RePack

fifa19

RePack

Assassins Creed: Odyssey

RePack

NEED FOR SPEED™ PAYBACK

3 сезон

9 сезон

Бесстыжие 9 сезон

Все сериалы

все сериалы на PB.wtf

RePack

FAR CRY 5
Ребята, катастрофически не хватает 1900р. для оплаты серверов за АВГУСТ (всвязи с блокировками трафик упал в 3 раза), 1-2р., выручайте.
  

Чужая нация / Alien Nation (Грэм Бейкер / Graham Baker) [1988, США, фантастика, боевик, криминал, DVDRip,Профессиональный (двухголосый) pb.wtf

Чужая нация через торрент pb.wtf

Размер: 1.37 GB | Добавлен: 3 года 5 мес. назад | Торрент скачан:38 раз
Скачать  

06-05-2016 19:01 Чужая нация Скачать торрент  

Чужая нация / Alien Nation

Год выпуска: 1988
Страна: США
Жанр: фантастика, боевик, криминал

Продолжительность: 01:26:15
Перевод: Профессиональный (двухголосый)
Субтитры: Нет
Режиссер: Грэм Бейкер / Graham Baker
В ролях: Джеймс Каан (Det. Sgt. Matthew Sykes), Мэнди Пэтинкин (Det. Samuel «George» Francisco), Теренс Стэмп (William Harcourt), Кевин Мейджор Ховард (Rudyard Kipling), Лесли Бевис (Cassandra), Питер Джейсон (Fedorchuk), Конрад Данн (Quint), Джефф Кобер (Joshua Strader), Роджер Аарон Браун (Det. Bill Tuggle), Тони Саймотс (Wiltey), Майкл Дэвид Симс (Human Dealer), Эд Кригер (Alien Dealer)
Описание:
В пустыне Мохаве потерпел крушение огромный инопланетный космический корабль, перевозивший 250 тысяч рабов из разных концов Галактики. Пришельцы стали жить среди людей, многие из которых были очень враждебно настроены по отношению к «отбросам Вселенной».
Среди них - детектив Мэттью Сайкс, напарник которого погиб в перестрелке с бандой пришельцев. Перебирая бумаги погибшего друга, Мэттью делает открытие: его убили за то, что он пытался выяснить, почему пришельцы так слепо повиновались своим бывшим хозяевам.
Когда в городе начинают находить трупы пришельцев, умерших от странной болезни, а на страницы газет попадает снимок чудовищной насекомообразной твари, Мэттью и его новый напарник, пришелец Джордж, вынуждены работать рука об руку, чтобы раскрыть тайну этих событий...
Рейтинг
kinopoisk.ru: 6.219 (500)
imdb.com: 6.30 (10 872)
MPAA: R - Лицам до 17 лет обязательно присутствие взрослого
Качество: DVDRip
Формат: AVI
Видео кодек: DivX 5
Аудио кодек:AC3
Видео: DivX 5, 704x304 (2.35:1), 1497 kbps, 25 fps, 0,280 bpp
Аудио №1: AC3 / 2.0 / 48 kHz / 384 kbps / 16 bit русский
Аудио №2: AC3 / 2.0 / 48 kHz / 384 kbps / 16 bit английский

General
Complete name : D:\torrent\Chuzaya naciya.1988.DivX.DVDRip.avi
Format : AVI
Format/Info : Audio Video Interleave
File size : 1.37 GiB
Duration : 1h 26mn
Overall bit rate : 2 280 Kbps
Movie name : Nacija Prishelcev / Alien Nation (1988)
Director : Fixed: SENATOR
Writing application : VirtualDubMod 1.5.4.1 (build 2178/release)
Copyright : Ivanov & forum.xvid.ru
Comment : 14.08.2007

Video
ID : 0
Format : MPEG-4 Visual
Format settings, BVOP : 1
Format settings, QPel : No
Format settings, GMC : No warppoints
Format settings, Matrix : Default (H.263)
Muxing mode : Packed bitstream
Codec ID : DX50
Codec ID/Hint : DivX 5
Duration : 1h 26mn
Bit rate : 1 498 Kbps
Width : 704 pixels
Height : 304 pixels
Display aspect ratio : 2.35:1
Frame rate : 25.000 fps
Color space : YUV
Chroma subsampling : 4:2:0
Bit depth : 8 bits
Scan type : Progressive
Compression mode : Lossy
Bits/(Pixel*Frame) : 0.280
Stream size : 924 MiB (66%)
Writing library : DivX 6.1.1 (UTC 2006-02-01)

Audio #1
ID : 1
Format : AC-3
Format/Info : Audio Coding 3
Mode extension : CM (complete main)
Codec ID : 2000
Duration : 1h 26mn
Bit rate mode : Constant
Bit rate : 384 Kbps
Channel(s) : 2 channels
Channel positions : Front: L R
Sampling rate : 48.0 KHz
Bit depth : 16 bits
Compression mode : Lossy
Stream size : 237 MiB (17%)
Alignment : Split accross interleaves
Interleave, duration : 40 ms (1.00 video frame)
Interleave, preload duration : 500 ms

Audio #2
ID : 2
Format : AC-3
Format/Info : Audio Coding 3
Mode extension : CM (complete main)
Codec ID : 2000
Duration : 1h 26mn
Bit rate mode : Constant
Bit rate : 384 Kbps
Channel(s) : 2 channels
Channel positions : Front: L R
Sampling rate : 48.0 KHz
Bit depth : 16 bits
Compression mode : Lossy
Stream size : 237 MiB (17%)
Alignment : Split accross interleaves
Interleave, duration : 40 ms (1.00 video frame)
Interleave, preload duration : 500 ms





pb.wtf



Скачать Чужая нация через торрент http://pic.kartinco.top/images/11/6shuo.jpg Скачать фильм Чужая нация через торрент бесплантно в хорошем качестве Описание: В пустыне Мохаве потерпел крушение огромный инопланетный космический корабль, перевозивший 250 тысяч рабов из разных концов ... 10 10 2
Торрент: Зарегистрирован [2016-05-06 19:01] · скачан: 38 раз
Статус: √ проверено
Размер: 1.37 GB
Как cкачать? Как скачать Чужая нация через торрент | qTorrent

% Раздел Тема Автор DL S | L
Фильмы (Blu-ray, BD-Remux, HDDVD) [ 21.73 GB ] Чужая нация / Alien Nation [1988 BDRemux 1080p] MVO 2x AVO -Lexx- Скачать
1 | 0


Последний раз редактировалось: jump88 (2016-05-07 20:37), всего редактировалось 1 раз


>> Регистрируемся здесь <<






Отзывы и комментарии о схеме читаем и пишем здесь: ---> Отзывы и комментарии о схеме

Новые благодарочки в телеграм довольных пользователей:
скриншот   скриншот   скриншот   скриншот   скриншот

07-05-2016 05:10 Чужая нация Скачать торрент  

Как этот старенький фильм?не бред? pb.wtf



    Дорогой пользователь! Огромная просьба, поблагодарите релизера, оцените раздачу и оставьте свои комментарий, если Вы скачали Чужая нация через торрент бесплатно! Внесите свою лепту в развитие PiratBit!
    Комментировать посты могут только пользователи прошедшие не сложную регистрацию
    Показать сообщения:    

    Чужая нация через торрент
    Скачать бесплатно Чужая нация
    Чужая нация скачать торрент
    Чужая нация смотреть онлайн
    Cкачать фильм Чужая нация бесплатно
    Чужая нация скачать торрент в хорошем качестве
    Чужая нация смотреть онлайн бесплатно в хорошем качестве


    Вы не можете начинать темы
    Вы не можете отвечать на сообщения
    Вы не можете редактировать свои сообщения
    Вы не можете удалять свои сообщения
    Вы не можете голосовать в опросах
    Вы не можете прикреплять файлы к сообщениям
    Вы можете скачивать файлы