1 сезон

1 сезон

iTunes

1

КиноПоиск HD

Кинопоиск HD

iTunes

13

1 сезон

RePack

30

Ultimate

ВАЖНО

ИГРА 18+

pack

RePack

MK11
pack

Легкие деньги

RePack

jed

RePack

fifa19

RePack

RDR2

RePack

NEED FOR SPEED™ PAYBACK

4 сезон

9 сезон

Бесстыжие 9 сезон

Все сериалы

все сериалы на PB.wtf

RePack

FAR CRY 5
  
Magnet ссылка

Они были солдатами / Saints and Soldiers (Райан Литтл / Ryan Little) [2003, США, боевик, драма, приключения, BDRip-AVC от sokol_ok] DVO [Лицензия] pb.wtf

Они были солдатами через торрент pb.wtf

Раздают: 1 [ 0 KB/s ]
Размер: 2.91 GB | Добавлен: 4 года 11 мес. назад | Торрент скачан:88 раз
Скачать  

07-05-2016 07:29 Они были солдатами Скачать торрент  

Они были солдатами
Saints and Soldiers

«There is a time for heroes»


Страна: США
Жанр: боевик, драма, приключения, военный

Год выпуска: 2003
Продолжительность: 01:30:29

Перевод: Профессиональный (двухголосый, закадровый) [Лицензия R5]
Субтитры: английские (полные, SDH)
Оригинальная аудиодорожка: английский

Режиссер: Райан Литтл / Ryan Little

В ролях: Корбин Оллред, Александр Полински, Кирби Хэйборн, Ларри Бэгби, Питер Эсли Холден, Этан Винсент, Мелинда Рени, Руби Чейз О’Нил, Джефф Бирк, Бен Гурли, Тэйн Уильямс, Рэнди Бирд

Описание:
Вторая мировая война. Пять американских солдат, лишенные оружия и еды, потерялись в тылу врага. Они должны выжить любой ценой, ведь только у них есть информация, которая может спасти жизни тысячи соотечественников. Релиз:

Автор рипа: Stalker oK

Сэмпл

Качество видео: BDRip-AVC [HDCLUB / Blu-ray Remux / 1080p]
Формат видео: MKV
Видео кодек: AVC
Аудио кодек: AC3
Видео: 3711 Кбит/сек, 958*516 (1,85:1), в 23,976 (24000/1001) кадра/сек, AVC
Аудио #1: русский, 448 Кбит/сек, 48,0 КГц, 6 каналов, AC-3
Аудио #2: английский, 448 Кбит/сек, 48,0 КГц, 6 каналов, AC-3
Навигация по главам: есть

Общее
Уникальный идентификатор : 215118959225700136014872520586345323422 (0xA1D6678E7AD46C278EECFCA908CC1B9E)
Полное имя : M:\Rips\Saints and Soldiers\Saints.and.Soldiers.2003.BDRip-AVC.DVO.2.91Gb.stalkerok.new-team.mkv
Формат : Matroska
Версия формата : Version 4 / Version 2
Размер файла : 2,91 Гбайт
Продолжительность : 1 ч. 30 м.
Общий поток : 4605 Кбит/сек
Название фильма : Saints and Soldiers (2003) (New-Team) (Rip by Stalker oK)
Дата кодирования : UTC 2016-05-06 19:42:12
Программа кодирования : mkvmerge v8.6.1 ('Flying') 64bit
Библиотека кодирования : libebml v1.3.3 + libmatroska v1.4.4

Видео
Идентификатор : 1
Формат : AVC
Формат/Информация : Advanced Video Codec
Профиль формата : High@L4.1
Параметр CABAC формата : Да
Параметр ReFrames формата : 14 кадров
Идентификатор кодека : V_MPEG4/ISO/AVC
Продолжительность : 1 ч. 30 м.
Битрейт : 3711 Кбит/сек
Ширина : 958 пикселей
Высота : 516 пикселей
Соотношение сторон : 1,85:1
Режим частоты кадров : Постоянный
Частота кадров : 23,976 (24000/1001) кадра/сек
Цветовое пространство : YUV
Субдискретизация насыщенности : 4:2:0
Битовая глубина : 8 бит
Тип развёртки : Прогрессивная
Бит/(Пиксели*Кадры) : 0.313
Размер потока : 2,34 Гбайт (80%)
Заголовок : Saints and Soldiers (2003) (New-Team) (Rip by Stalker oK)
Библиотека кодирования : x264 core 148 r2638kMod 7599210
Настройки программы : cabac=1 / ref=14 / deblock=1:-3:-3 / analyse=0x3:0x133 / me=umh / subme=11 / psy=1 / fade_compensate=0.00 / psy_rd=1.00:0.10 / mixed_ref=1 / me_range=48 / chroma_me=1 / trellis=2 / 8x8dct=1 / cqm=0 / deadzone=21,11 / fast_pskip=0 / chroma_qp_offset=-3 / threads=12 / lookahead_threads=3 / sliced_threads=0 / nr=0 / decimate=0 / interlaced=0 / bluray_compat=0 / constrained_intra=0 / fgo=0 / bframes=15 / b_pyramid=2 / b_adapt=2 / b_bias=0 / direct=3 / weightb=1 / open_gop=0 / weightp=2 / keyint=240 / keyint_min=23 / scenecut=40 / intra_refresh=0 / rc_lookahead=60 / rc=2pass / mbtree=0 / bitrate=3711 / ratetol=1.0 / qcomp=0.70 / qpmin=0 / qpmax=69 / qpstep=4 / cplxblur=20.0 / qblur=0.5 / vbv_maxrate=50000 / vbv_bufsize=62500 / nal_hrd=none / filler=0 / ip_ratio=1.40 / pb_ratio=1.30 / aq=3:0.90
Default : Да
Forced : Нет

Аудио #1
Идентификатор : 2
Формат : AC-3
Формат/Информация : Audio Coding 3
Расширение режима : CM (complete main)
Параметр Endianness формата : Big
Идентификатор кодека : A_AC3
Продолжительность : 1 ч. 30 м.
Вид битрейта : Постоянный
Битрейт : 448 Кбит/сек
Каналы : 6 каналов
Расположение каналов : Front: L C R, Side: L R, LFE
Частота : 48,0 КГц
Частота кадров : 31,250 кадров/сек (1536 spf)
Метод сжатия : С потерями
Размер потока : 290 Мбайт (10%)
Язык : Russian
Default : Да
Forced : Нет

Аудио #2
Идентификатор : 3
Формат : AC-3
Формат/Информация : Audio Coding 3
Расширение режима : CM (complete main)
Параметр Endianness формата : Big
Идентификатор кодека : A_AC3
Продолжительность : 1 ч. 30 м.
Вид битрейта : Постоянный
Битрейт : 448 Кбит/сек
Каналы : 6 каналов
Расположение каналов : Front: L C R, Side: L R, LFE
Частота : 48,0 КГц
Частота кадров : 31,250 кадров/сек (1536 spf)
Метод сжатия : С потерями
Размер потока : 290 Мбайт (10%)
Язык : English
Default : Нет
Forced : Нет

Текст #1
Идентификатор : 4
Формат : UTF-8
Идентификатор кодека : S_TEXT/UTF8
Идентификатор кодека/Информация : UTF-8 Plain Text
Продолжительность : 1 ч. 24 м.
Битрейт : 38 бит/сек
Count of elements : 1061
Размер потока : 23,7 Кбайт (0%)
Язык : English
Default : Нет
Forced : Нет

Текст #2
Идентификатор : 5
Формат : UTF-8
Идентификатор кодека : S_TEXT/UTF8
Идентификатор кодека/Информация : UTF-8 Plain Text
Продолжительность : 1 ч. 24 м.
Битрейт : 38 бит/сек
Count of elements : 1091
Размер потока : 24,0 Кбайт (0%)
Заголовок : SDH
Язык : English
Default : Нет
Forced : Нет

Меню
00:00:00.000 : en:Chapter 1
00:04:32.562 : en:Chapter 2
00:09:00.873 : en:Chapter 3
00:13:31.351 : en:Chapter 4
00:17:07.608 : en:Chapter 5
00:29:18.964 : en:Chapter 6
00:34:50.295 : en:Chapter 7
00:40:05.027 : en:Chapter 8
00:45:05.827 : en:Chapter 9
00:51:39.637 : en:Chapter 10
00:56:13.244 : en:Chapter 11
01:00:42.722 : en:Chapter 12
01:05:52.405 : en:Chapter 13
01:11:26.238 : en:Chapter 14
01:21:32.136 : en:Chapter 15
01:26:08.704 : en:Chapter 16
pb.wtf



Скачать Они были солдатами через торрент http://i72.fastpic.ru/big/2015/0531/46/68ef8a2783b58e5344cc30bbd3f1b046.png Скачать фильм Они были солдатами через торрент бесплантно в хорошем качестве Описание:Вторая мировая война. Пять американских солдат, лишенные оружия и еды, потерялись в тылу врага. Они должны выжить любой ценой, ... 7.8 10 5
Info! Золотая раздача, скачанное не засчитывается.
Торрент: Зарегистрирован [2016-05-07 07:29] · скачан: 88 раз
Статус: √ проверено
Размер: 2.91 GB
Как cкачать? Как скачать Они были солдатами через торрент | UTorrent

% Раздел Тема Автор DL S | L
Фильмы 2012 [ 2.18 GB ] Они были солдатами 2 / Saints and Soldiers: Airborne Creed [2012 военный BDRip-AVC от sokol_ok] DVO [НТВ sokol_ok Скачать
2 | 0
Фильмы 2012 [ 1.46 GB ] Они были солдатами 2 / Saints and Soldiers: Airborne Creed [2012 военный BDRip-AVC от sokol_ok] DVO [НТВ sokol_ok Скачать
2 | 0
Фильмы 2001-2005 [ 1.46 GB ] Они были солдатами / Saints and Soldiers [2003 BDRip-AVC от sokol_ok] DVO [] sokol_ok Скачать
2 | 0
Фильмы 2012 [ 1.37 GB ] Они были солдатами 2 / Saints and Soldiers: Airborne Creed [2012 военный HDRip MVO [НТВ кэп Скачать
1 | 0
Фильмы 2001-2005 [ 699 MB ] Они были солдатами / Saints and Soldiers [2003 биография документальный военный история DVDRip] Dipe Скачать
1 | 0
Фильмы 2001-2005 [ 1.46 GB ] Они были солдатами / Saints and Soldiers [2003 военный HDRip] AngelTLT Скачать
1 | 0

28-11-2019 20:33  

Отключить всю рекламу на сайте

    Дорогой пользователь! Огромная просьба, поблагодарите релизера, оцените раздачу и оставьте свои комментарий, если Вы скачали Они были солдатами через торрент бесплатно! Внесите свою лепту в развитие PiratBit!
    Комментировать посты могут только пользователи прошедшие не сложную регистрацию
    Показать сообщения:    

    Они были солдатами через торрент
    Скачать бесплатно Они были солдатами
    Они были солдатами скачать торрент
    Они были солдатами смотреть онлайн
    Cкачать фильм Они были солдатами бесплатно
    Они были солдатами скачать торрент в хорошем качестве
    Они были солдатами смотреть онлайн бесплатно в хорошем качестве


    Вы не можете начинать темы
    Вы не можете отвечать на сообщения
    Вы не можете редактировать свои сообщения
    Вы не можете удалять свои сообщения
    Вы не можете голосовать в опросах
    Вы не можете прикреплять файлы к сообщениям
    Вы можете скачивать файлы