Ссылка на приватное зеркало нашего сайта всего за 1$. Внимание количество ограничено!!!

2 сезон

iTunes

1 сезон

1

iTunes

iTunes

iTunes

1 сезон

RePack

30

ИГРА 18+

pack

ВАЖНО

!!Акция!!

Alien_RageХит недели

RePack

MK11
pack

Забери бонус

RePack

jed

!!Акция!!

Alien_Rage

RePack

fifa19

RePack

Assassins Creed: Odyssey

RePack

NEED FOR SPEED™ PAYBACK

4 сезон

9 сезон

Бесстыжие 9 сезон

Все сериалы

все сериалы на PB.wtf

RePack

FAR CRY 5
  

Второй брак/ Серии: 1-4 из 4 (Олег Массарыгин) [2015,мелодрама, SATRip-AVC] pb.wtf

Второй брак через торрент pb.wtf

Размер: 2.14 GB | Добавлен: 4 года 5 мес. назад | Торрент скачан:192 раза
Скачать  

07-05-2016 17:05 Второй брак Скачать торрент  

Второй брак




Год выпуска: 2015
Производство: Россия, «Марс Медиа» и «Компания Парк синема»
Жанр: мелодрама
Продолжительность: 00:44:00
Субтитры: нет




Режиссёр:Олег Массарыгин



В ролях: Маргарита Адаева, Иван Жидков, Лариса Домаскина, Натали Старынкевич, Виталий Кудрявцев, Александр Бобров , Сергей Стёпин, Ангелина Притуманова, Дарья Иванова



Описание: Настя Окунева приезжает в Москву и получает работу в крупной строительной компании, которой руководит подруга ее покойной матери Кира Георгиевна. Но наладившаяся жизнь в столице ставится под вопрос, когда Кира Георгиевна скоропостижно умирает. Управление компанией переходит к ее сыну Глебу – холостому и привлекательному молодому человеку. Неожиданно для Насти он начинает оказывать ей знаки внимания и даже делает предложение. Девушка без ума от счастья, но до конца боится поверить, что это происходит наяву. Если бы она только знала, что у Глеба давно есть невеста Марина, а руку и сердце он предлагает ей только, чтобы получить наследство – таково было завещание Киры Георгиевны. Кто же из двух девушек станет женой Глеба, которому гадалка уже предсказала – только второй брак будет для него счастливым?








Качество: SATRip-AVC
Формат: MKV
Видео кодек: H.264
Аудио кодек: AC3
Видео: MPEG-4 AVC, 720х400,25fps,~1550 Кбит/сек,Bits/Pixel 0.215
Аудио: AC3, 48 kHz, ~192 Kbps, 2 канала



Общее
Уникальный идентификатор : 228398342274217985626170014124537055441 (0xABD3EBB09943B597927865F23CFC88D1)
Полное имя : D:\Второй брак\01 серия_Второй брак_rip by_Aleksan55.mkv
Формат : Matroska
Версия формата : Version 2
Размер файла : 553 Мбайт
Продолжительность : 44 м.
Общий поток : 1744 Кбит/сек
Дата кодирования : UTC 2016-05-07 10:37:18
Программа кодирования : mkvmerge v7.8.0 ('River Man') 32bit built on Apr 3 2015 12:11:22
Библиотека кодирования : libebml v1.3.1 + libmatroska v1.4.2

Видео
Идентификатор : 1
Формат : AVC
Формат/Информация : Advanced Video Codec
Профиль формата : High@L4.1
Параметр CABAC формата : Да
Параметр ReFrames формата : 13 кадров
Идентификатор кодека : V_MPEG4/ISO/AVC
Продолжительность : 44 м.
Битрейт : 1550 Кбит/сек
Ширина : 720 пикселей
Высота : 400 пикселей
Соотношение сторон : 16:9
Режим частоты кадров : Постоянный
Частота кадров : 25,000 кадров/сек
Цветовое пространство : YUV
Субдискретизация насыщенности : 4:2:0
Битовая глубина : 8 бит
Тип развёртки : Прогрессивная
Бит/(Пиксели*Кадры) : 0.215
Размер потока : 481 Мбайт (87%)
Библиотека кодирования : x264 core 146 r2538 121396c
Настройки программы : cabac=1 / ref=13 / deblock=1:-2:-2 / analyse=0x3:0x113 / me=umh / subme=9 / psy=1 / psy_rd=1.00:0.15 / mixed_ref=0 / me_range=32 / chroma_me=1 / trellis=2 / 8x8dct=1 / cqm=0 / deadzone=21,11 / fast_pskip=1 / chroma_qp_offset=-3 / threads=4 / lookahead_threads=4 / sliced_threads=0 / nr=0 / decimate=1 / interlaced=0 / bluray_compat=0 / constrained_intra=0 / bframes=13 / b_pyramid=2 / b_adapt=1 / b_bias=0 / direct=3 / weightb=1 / open_gop=0 / weightp=2 / keyint=250 / keyint_min=25 / scenecut=40 / intra_refresh=0 / rc_lookahead=40 / rc=2pass / mbtree=1 / bitrate=1550 / ratetol=1.0 / qcomp=0.60 / qpmin=0 / qpmax=69 / qpstep=4 / cplxblur=20.0 / qblur=0.5 / ip_ratio=1.40 / aq=1:1.20
Default : Да
Forced : Нет
Цветовой диапазон : Limited
Основные цвета : BT.601 PAL
Характеристики трансфера : BT.470 System B, BT.470 System G
Коэффициенты матрицы : BT.601

Аудио
Идентификатор : 2
Формат : AC-3
Формат/Информация : Audio Coding 3
Расширение режима : CM (complete main)
Параметр Endianness формата : Big
Идентификатор кодека : A_AC3
Продолжительность : 44 м.
Вид битрейта : Постоянный
Битрейт : 192 Кбит/сек
Каналы : 2 канала
Расположение каналов : Front: L R
Частота : 48,0 КГц
Метод сжатия : С потерями
Размер потока : 60,9 Мбайт (11%)
Default : Да
Forced : Нет


Рекламы нет.pb.wtf



Скачать Второй брак через торрент http://s009.radikal.ru/i308/1605/6e/c14c19586843.jpg Скачать фильм Второй бракчерез торрент бесплантно в хорошем качестве Описание: Настя Окунева приезжает в Москву и получает работу в крупной строительной компании, которой руководит подруга ее покойной матери ... 8.5 10 6
Info! Золотая раздача, скачанное не засчитывается.
Торрент: Зарегистрирован [2016-05-07 17:05] · скачан: 192 раз
Статус: √ проверено
Размер: 2.14 GB
Как cкачать? Как скачать Второй брак через торрент | qTorrent

% Раздел Тема Автор DL S | L
Наши сериалы [ 3.45 GB ] Второй брак / 1-4 серии из 4 [2015 WEB-DLRip 720p] bober100 Скачать
1 | 0

28-11-2019 20:33  

Отключить всю рекламу на сайте

07-05-2016 17:35 Второй брак Скачать торрент  

Цитата:

Раздача со статусом Золото благодаря:
rdisar(5000)

pb.wtf



    Дорогой пользователь! Огромная просьба, поблагодарите релизера, оцените раздачу и оставьте свои комментарий, если Вы скачали Второй брак через торрент бесплатно! Внесите свою лепту в развитие PiratBit!
    Комментировать посты могут только пользователи прошедшие не сложную регистрацию
    Показать сообщения:    

    Второй брак через торрент
    Скачать бесплатно Второй брак
    Второй брак скачать торрент
    Второй брак смотреть онлайн
    Cкачать фильм Второй брак бесплатно
    Второй брак скачать торрент в хорошем качестве
    Второй брак смотреть онлайн бесплатно в хорошем качестве


    Вы не можете начинать темы
    Вы не можете отвечать на сообщения
    Вы не можете редактировать свои сообщения
    Вы не можете удалять свои сообщения
    Вы не можете голосовать в опросах
    Вы не можете прикреплять файлы к сообщениям
    Вы можете скачивать файлы