Наша группа ВК в очередной раз забанена мы уходим в Телеграм, присоединяйтесь!!!

Лицензия

30

iTunes

мы

iTunes

1

1 сезон

Чернобыль

iTunes

1+1

iTunes

Закатать в асфальт

8 сезон

Игра престолов

1 сезон

Ральф против интернета

ИГРА 18+

pack

ВАЖНО

!!Акция!!

Alien_RageХит недели

RePack

Resident Evil 21
pack

RePack

Metro:Exodus

!!Акция!!

Alien_Rage

RePack

fifa19

RePack

Assassins Creed: Odyssey

RePack

NEED FOR SPEED™ PAYBACK

3 сезон

9 сезон

Бесстыжие 9 сезон

Все сериалы

все сериалы на PB.wtf

RePack

FAR CRY 5
Ребята, катастрофически не хватает 2730р. для оплаты серверов за АПРЕЛЬ (всвязи с блокировками трафик упал в 3 раза), 1-2р., выручайте.
  

Жил-был полицейский / Il еtait une fois un flic... (Жорж Лотнер ) [1972, комедия, криминал, BDRip-AVC] Dub, 2x MVO, Sub Rus, Eng pb.wtf

Жил-был полицейский через торрент pb.wtf

Размер: 2.36 GB | Добавлен: 3 года назад | Торрент скачан:27 раз
Скачать  

07-05-2016 20:47 Жил-был полицейский Скачать торрент  

Жил-был полицейский / Il еtait une fois un flic...

Год выпуска: 1972
Страна: Италия, Франция
Жанр: комедия, криминал

Продолжительность: 01:36:03
Перевод: Дубляж
Профессиональный многоголосый
Субтитры
Субтитры: русские (Full), английские (Full), Вшитые отключаемые
Режиссер: Жорж Лотнер
В ролях: Мишель Константен (Le commissaire Campana), Микаэль Лонсдаль (Le commissaire Lucas), Даниэль Ивернель (Ligmann), Мирей Дарк (Christine), Венантино Венантини (Felice), Джулиано Дисперати, Эрве Ийен (Bertrand), Робер Дальбан (Le commissaire Chauvet / Superintendent in Nice), Анри Гибе (Un inspecteur), Филлис Мейджор (Marianne Halifax), Жан-Жак Моро, Чарльз Саутвуд (Un agent du Narcotic Bureau)
Описание:
Комиссар Кампана (по легенде - брат недавно убитого мафиози) отправляется в Ниццу со спецзаданием - найти и обезвредить боссов наркокартеля. Кампана - мрачный крутой мужик, привыкший решать все вопросы кулаком и пистолетом, не любящий женщин и детей, мешающих работе.
Однако на этот раз руководство решило осложнить ему жизнь - вместе со своей напарницей, очаровательной Кристин, и ее 9-летним сыном, они должны изображать счастливую семью... В Ницце их ждет теплая встреча - гангстеры, местные полицейские и громилы из американского Бюро по борьбе с распространением наркотиков - у всех есть вопросы к «брату» наркокурьера.
Рейтинг:

imdb.com: 6.20 (332)
Качество: BDRip-AVC
Формат: MKV
Видео: AVC, 1024x616 (1.662), 2750 kbps, 24 fps, 0,182 bpp
Аудио №1: русский / AC3 / 2.0 / 48 kHz / 192 kbps / 16 bit ||(Dub, киностудия «Мосфильм», с вставками Cinema Prestige)
Аудио №2: русский / AC3 / 2.0 / 48 kHz / 192 kbps / 16 bit ||(MVO, Cinema Prestige)
Аудио №3: русский / AC3 / 2.0 / 48 kHz / 192 kbps / 16 bit ||(MVO)
Аудио №4: французский / AC3 / 2.0 / 48 kHz / 192 kbps / 16 bit (Оригинал)

Код:

General
Unique ID                                : 207047756000660703714076835436917635847 (0x9BC3F2839004551792BEFE0985EB3B07)
Complete name                            : D:\врем\BitTorrent\Жил-был полицейский.mkv
Format                                   : Matroska
Format version                           : Version 4 / Version 2
File size                                : 2.36 GiB
Duration                                 : 1h 36mn
Overall bit rate                         : 3 521 Kbps
Encoded date                             : UTC 2016-04-25 08:43:56
Writing application                      : mkvmerge v7.0.0 ('Where We Going') 32bit built on Jun  9 2014 15:08:34
Writing library                          : libebml v1.3.0 + libmatroska v1.4.1
_STATISTICS_WRITING_APP                  : mkvmerge v7.0.0 ('Where We Going') 32bit built on Jun  9 2014 15:08:34
_STATISTICS_WRITING_DATE_UTC             : 2016-04-25 08:43:56
_STATISTICS_TAGS                         : BPS DURATION NUMBER_OF_FRAMES NUMBER_OF_BYTES
DURATION                                 : 01:36:03.520000000
NUMBER_OF_FRAMES                         : 180110
NUMBER_OF_BYTES                          : 138324480

Video
ID                                       : 1
Format                                   : AVC
Format/Info                              : Advanced Video Codec
Format profile                           : High@L4.1
Format settings, CABAC                   : Yes
Format settings, ReFrames                : 8 frames
Codec ID                                 : V_MPEG4/ISO/AVC
Duration                                 : 1h 36mn
Bit rate                                 : 2 750 Kbps
Width                                    : 1 024 pixels
Height                                   : 616 pixels
Display aspect ratio                     : 1.662
Frame rate                               : 24.000 fps
Color space                              : YUV
Chroma subsampling                       : 4:2:0
Bit depth                                : 8 bits
Scan type                                : Progressive
Bits/(Pixel*Frame)                       : 0.182
Stream size                              : 1.80 GiB (76%)
Title                                    : Il etait une fois un flic...
Writing library                          : x264 core 125 r2208 d9d2288
Encoding settings                        : cabac=1 / ref=8 / deblock=1:-1:-1 / analyse=0x3:0x133 / me=umh / subme=9 / psy=1 / psy_rd=1.00:0.10 / mixed_ref=1 / me_range=32 / chroma_me=1 / trellis=2 / 8x8dct=1 / cqm=0 / deadzone=21,11 / fast_pskip=0 / chroma_qp_offset=-3 / threads=6 / lookahead_threads=1 / sliced_threads=0 / nr=0 / decimate=1 / interlaced=0 / bluray_compat=0 / constrained_intra=0 / bframes=3 / b_pyramid=2 / b_adapt=2 / b_bias=0 / direct=3 / weightb=1 / open_gop=0 / weightp=2 / keyint=250 / keyint_min=25 / scenecut=40 / intra_refresh=0 / rc_lookahead=60 / rc=2pass / mbtree=1 / bitrate=2750 / ratetol=1.0 / qcomp=0.60 / qpmin=0 / qpmax=69 / qpstep=4 / cplxblur=20.0 / qblur=0.5 / ip_ratio=1.40 / aq=1:1.00
Language                                 : French
Default                                  : Yes
Forced                                   : No

Audio #1
ID                                       : 2
Format                                   : AC-3
Format/Info                              : Audio Coding 3
Mode extension                           : CM (complete main)
Codec ID                                 : A_AC3
Duration                                 : 1h 36mn
Bit rate mode                            : Constant
Bit rate                                 : 192 Kbps
Channel(s)                               : 2 channels
Channel positions                        : Front: L R
Sampling rate                            : 48.0 KHz
Bit depth                                : 16 bits
Compression mode                         : Lossy
Stream size                              : 132 MiB (5%)
Title                                    : Дубляж
Language                                 : Russian
Default                                  : Yes
Forced                                   : No

Audio #2
ID                                       : 3
Format                                   : AC-3
Format/Info                              : Audio Coding 3
Mode extension                           : CM (complete main)
Codec ID                                 : A_AC3
Duration                                 : 1h 36mn
Bit rate mode                            : Constant
Bit rate                                 : 192 Kbps
Channel(s)                               : 2 channels
Channel positions                        : Front: L R
Sampling rate                            : 48.0 KHz
Bit depth                                : 16 bits
Compression mode                         : Lossy
Stream size                              : 132 MiB (5%)
Title                                    : Многоголосый закадровый, Cinema Prestige
Language                                 : Russian
Default                                  : No
Forced                                   : No

Audio #3
ID                                       : 4
Format                                   : AC-3
Format/Info                              : Audio Coding 3
Mode extension                           : CM (complete main)
Codec ID                                 : A_AC3
Duration                                 : 1h 36mn
Bit rate mode                            : Constant
Bit rate                                 : 192 Kbps
Channel(s)                               : 2 channels
Channel positions                        : Front: L R
Sampling rate                            : 48.0 KHz
Bit depth                                : 16 bits
Compression mode                         : Lossy
Stream size                              : 132 MiB (5%)
Title                                    : Многоголосый закадровый
Language                                 : Russian
Default                                  : No
Forced                                   : No

Audio #4
ID                                       : 5
Format                                   : AC-3
Format/Info                              : Audio Coding 3
Mode extension                           : CM (complete main)
Codec ID                                 : A_AC3
Duration                                 : 1h 36mn
Bit rate mode                            : Constant
Bit rate                                 : 192 Kbps
Channel(s)                               : 2 channels
Channel positions                        : Front: L R
Sampling rate                            : 48.0 KHz
Bit depth                                : 16 bits
Compression mode                         : Lossy
Stream size                              : 132 MiB (5%)
Title                                    : Оригинал
Language                                 : French
Default                                  : No
Forced                                   : No

Text #1
ID                                       : 6
Format                                   : UTF-8
Codec ID                                 : S_TEXT/UTF8
Codec ID/Info                            : UTF-8 Plain Text
Title                                    : Full
Language                                 : Russian
Default                                  : No
Forced                                   : No

Text #2
ID                                       : 7
Format                                   : UTF-8
Codec ID                                 : S_TEXT/UTF8
Codec ID/Info                            : UTF-8 Plain Text
Title                                    : Full
Language                                 : English
Default                                  : No
Forced                                   : No






скриншот  скриншот  скриншот  скриншот  

pb.wtf



Скачать Жил-был полицейский через торрент http://i3.imageban.ru/out/2016/05/07/1c887d9f09cc432a47f959146bca340c.jpg Скачать фильм Жил-был полицейский через торрент бесплантно в хорошем качестве Описание: Комиссар Кампана (по легенде - брат недавно убитого мафиози) отправляется в Ниццу со спецзаданием - найти и обезвредить боссов ... 10 10 3
Info! Золотая раздача, скачанное не засчитывается.
Торрент: Зарегистрирован [2016-05-07 20:47] · скачан: 27 раз
Статус: √ проверено
Размер: 2.36 GB
Как cкачать? Как скачать Жил-был полицейский через торрент | qTorrent


>> Регистрируемся здесь <<






Отзывы и комментарии о схеме читаем и пишем здесь: ---> Отзывы и комментарии о схеме

Новые благодарочки в телеграм довольных пользователей:
скриншот   скриншот   скриншот   скриншот   скриншот
    Дорогой пользователь! Огромная просьба, поблагодарите релизера, оцените раздачу и оставьте свои комментарий, если Вы скачали Жил-был полицейский через торрент бесплатно! Внесите свою лепту в развитие PiratBit!
    Комментировать посты могут только пользователи прошедшие не сложную регистрацию
    Показать сообщения:    

    Жил-был полицейский через торрент
    Скачать бесплатно Жил-был полицейский
    Жил-был полицейский скачать торрент
    Жил-был полицейский смотреть онлайн
    Cкачать фильм Жил-был полицейский бесплатно
    Жил-был полицейский скачать торрент в хорошем качестве
    Жил-был полицейский смотреть онлайн бесплатно в хорошем качестве


    Вы не можете начинать темы
    Вы не можете отвечать на сообщения
    Вы не можете редактировать свои сообщения
    Вы не можете удалять свои сообщения
    Вы не можете голосовать в опросах
    Вы не можете прикреплять файлы к сообщениям
    Вы можете скачивать файлы