Ссылка на приватное зеркало нашего сайта всего за 1$. Внимание количество ограничено!!!

2 сезон

iTunes

1 сезон

1

2 сезон

2 сезон

iTunes

1 сезон

RePack

30

Ultimate

ВАЖНО

ИГРА 18+

pack

RePack

MK11
pack

Забери бонус

RePack

jed

!!Акция!!

Alien_Rage

RePack

fifa19

RePack

Assassins Creed: Odyssey

RePack

NEED FOR SPEED™ PAYBACK

4 сезон

9 сезон

Бесстыжие 9 сезон

Все сериалы

все сериалы на PB.wtf

RePack

FAR CRY 5
  

Дедушка легкого поведения / Dirty Grandpa (Дэн Мазер) [2016, Комедия, BDRemux 1080p] от ExKinoRay / Расширенная версия / iTunes pb.wtf

Дедушка легкого поведения через торрент pb.wtf

Размер: 29.65 GB | Добавлен: 4 года 6 мес. назад | Торрент скачан:133 раза
Скачать  

08-05-2016 05:12 Дедушка легкого поведения Скачать торрент  

Информация о фильме
Название: Дедушка легкого поведения
Оригинальное название: Dirty Grandpa
Год выхода: 2016
Жанр: Комедия
Страна: США
Студия: Lionsgate, QED International, Josephson Entertainment
Продолжительность: 01:49:34
Перевод: Дублированный | iTunes

Режиссер: Дэн Мазер

В ролях: Роберт Де Ниро, Зак Эфрон, Зои Дойч, Обри Плаза, Джейсон Манцукас, Дермот Малруни, Джулианна Хаф, Джеффри Бауэр-Чепман, Брэндон Майкал Смит, Джейк Пикинг, Майкл Хадсон, Адам Палли, Мо Коллинз, Генри Жебровский, Катрин Дайер, Дина Дилл, Лэйн Кэрлок, Кристофер Сеттикейс, Эрик Гойнс, Гэвин Мунн

Описание:

Джейсон, покладистый правильный парень, накануне свадьбы вляпывается в увеселительную поездку к морю со своим дедом, отставным генералом с легким нравом, бурной фантазией и вполне определенными потребностями… И, похоже, дедские каникулы изменят жизнь Джейсона навсегда!



Файл

Качество: BDRemux 1080p
Формат: MKV
Видео: MPEG-4, 1920x1080, 34.6 Мbit/s, 23.976 fps
Звук:
Аудио #01: 48 kHz, AC3, 5.1, 384 Kbps | Дублированный, iTunes |
Аудио #02: 48 kHz, DTS-HD MA, 5.1, 3758 kbps | Оригинал |

Релиз от: Автор релиза:

Общее

Уникальный идентификатор : 253991878953641012720723446960363985648 (0xBF150E78CD6F3B14B2C04B63F014DAF0)

Полное имя : G:VideoDirty.Grandpa.2016.BDREMUX.1080p.ExKinoRay.mkv

Формат : Matroska

Версия формата : Version 4 / Version 2

Размер файла : 29,6 Гбайт

Продолжительность : 1 ч. 49 м.

Режим общего битрейта : Переменный

Общий поток : 38,7 Мбит/сек

Название фильма : Dirty.Grandpa.2016.BDREMUX.1080p.ExKinoRay

Дата кодирования : UTC 2016-05-08 01:33:17

Программа кодирования : mkvmerge v8.3.0 ('Over the Horizon') 64bit

Библиотека кодирования : libebml v1.3.1 + libmatroska v1.4.2

Видео

Идентификатор : 1

Формат : AVC

Формат/Информация : Advanced Video Codec

Профиль формата : High@L4.1

Параметр CABAC формата : Да

Параметр ReFrames формата : 4 кадра

Идентификатор кодека : V_MPEG4/ISO/AVC

Продолжительность : 1 ч. 49 м.

Вид битрейта : Переменный

Битрейт : 34,6 Мбит/сек

Максимальный битрейт : 37,0 Мбит/сек

Ширина : 1920 пикселей

Высота : 1080 пикселей

Соотношение сторон : 16:9

Режим частоты кадров : Постоянный

Частота кадров : 23,976 (23976/1000) кадра/сек

Частота кадров в оригинале : 23,976 (24000/1001) кадра/сек

Цветовое пространство : YUV

Субдискретизация насыщенности : 4:2:0

Битовая глубина : 8 бит

Тип развёртки : Прогрессивная

Бит/(Пиксели*Кадры) : 0.696

Размер потока : 26,5 Гбайт (89%)

Язык : English

Default : Нет

Forced : Нет

Аудио #1

Идентификатор : 2

Формат : AC-3

Формат/Информация : Audio Coding 3

Расширение режима : CM (complete main)

Параметр Endianness формата : Big

Идентификатор кодека : A_AC3

Продолжительность : 1 ч. 49 м.

Вид битрейта : Постоянный

Битрейт : 384 Кбит/сек

Каналы : 6 каналов

Расположение каналов : Front: L C R, Side: L R, LFE

Частота : 48,0 КГц

Частота кадров : 31,250 кадров/сек (1536 spf)

Метод сжатия : С потерями

Размер потока : 301 Мбайт (1%)

Заголовок : DUB [iTunes]

Язык : Russian

Default : Да

Forced : Да

Аудио #2

Идентификатор : 3

Формат : DTS

Формат/Информация : Digital Theater Systems

Профиль формата : MA / Core

Режим : 16

Параметр Endianness формата : Big

Идентификатор кодека : A_DTS

Продолжительность : 1 ч. 49 м.

Вид битрейта : Переменный / Постоянный

Битрейт : 3758 Кбит/сек / 1509 Кбит/сек

Каналы : 6 каналов

Расположение каналов : Front: L C R, Side: L R, LFE

Частота : 48,0 КГц

Частота кадров : 93,750 кадра/сек (512 spf)

Битовая глубина : 24 бит

Метод сжатия : Без потерь / Lossy

Размер потока : 2,88 Гбайт (10%)

Заголовок : Original

Язык : English

Default : Нет

Forced : Нет

Меню

00:00:00.000 : en:Chapter 01

00:06:38.147 : en:Chapter 02

00:11:28.688 : en:Chapter 03

00:17:15.743 : en:Chapter 04

00:25:03.585 : en:Chapter 05

00:31:17.208 : en:Chapter 06

00:37:24.450 : en:Chapter 07

00:48:56.600 : en:Chapter 08

00:52:35.360 : en:Chapter 09

00:58:19.287 : en:Chapter 10

01:03:28.346 : en:Chapter 11

01:06:47.628 : en:Chapter 12

01:14:30.048 : en:Chapter 13

01:21:14.077 : en:Chapter 14

01:28:26.843 : en:Chapter 15

01:38:16.181 : en:Chapter 16
pb.wtf



Скачать Дедушка легкого поведения через торрент http://i77.fastpic.ru/big/2016/0508/0f/dbc519e2beb7e00b2477e8dd2a9d8b0f.png Скачать фильм Дедушка легкого поведения через торрент бесплантно в хорошем качестве Описание: Джейсон, покладистый правильный парень, накануне свадьбы вляпывается в увеселительную поездку к морю со своим дедом, отставным ... 8.2 10 5
Info! Золотая раздача, скачанное не засчитывается.
Торрент: Зарегистрирован [2016-05-08 05:12] · скачан: 133 раз
Статус: √ проверено
Размер: 29.65 GB
Как cкачать? Как скачать Дедушка легкого поведения через торрент | qTorrent

28-11-2019 20:33  

Отключить всю рекламу на сайте

15-07-2016 22:48 Дедушка легкого поведения Скачать торрент  

Фильм О_оооГОНЬьььь!!!)))
Роберт Де Ниро, исполнил роль А*уитительно!!! Исполняет такие Коры весь филь))) sarcastic sarcastic sarcastic
Зак Эфрон, Отжег как надо) Потусил в поездке, как надо beer beer
Стоит посмотреть)
Девиз зеленых беретов: Значит освобождать угнетенных. pb.wtf



    Дорогой пользователь! Огромная просьба, поблагодарите релизера, оцените раздачу и оставьте свои комментарий, если Вы скачали Дедушка легкого поведения через торрент бесплатно! Внесите свою лепту в развитие PiratBit!
    Комментировать посты могут только пользователи прошедшие не сложную регистрацию
    Показать сообщения:    

    Дедушка легкого поведения через торрент
    Скачать бесплатно Дедушка легкого поведения
    Дедушка легкого поведения скачать торрент
    Дедушка легкого поведения смотреть онлайн
    Cкачать фильм Дедушка легкого поведения бесплатно
    Дедушка легкого поведения скачать торрент в хорошем качестве
    Дедушка легкого поведения смотреть онлайн бесплатно в хорошем качестве


    Вы не можете начинать темы
    Вы не можете отвечать на сообщения
    Вы не можете редактировать свои сообщения
    Вы не можете удалять свои сообщения
    Вы не можете голосовать в опросах
    Вы не можете прикреплять файлы к сообщениям
    Вы можете скачивать файлы