Ссылка на приватное зеркало нашего сайта всего за 1$. Внимание количество ограничено!!!

2 сезон

iTunes

1 сезон

1

iTunes

iTunes

iTunes

1 сезон

RePack

30

ИГРА 18+

pack

ВАЖНО

!!Акция!!

Alien_RageХит недели

RePack

MK11
pack

Забери бонус

RePack

jed

!!Акция!!

Alien_Rage

RePack

fifa19

RePack

Assassins Creed: Odyssey

RePack

NEED FOR SPEED™ PAYBACK

4 сезон

9 сезон

Бесстыжие 9 сезон

Все сериалы

все сериалы на PB.wtf

RePack

FAR CRY 5
  

Бей в кость / Play It to the Bone (Рон Шелтон) [1999, драма, комедия, спорт, BDRip 1080p by msltel] DVO, 2 x AVO pb.wtf

Бей в кость через торрент pb.wtf

Размер: 15.18 GB | Добавлен: 4 года 5 мес. назад | Торрент скачан:11 раз
Скачать  

08-05-2016 06:13 Бей в кость Скачать торрент  

Название: Бей в кость
Оригинальное название: Play It to the Bone
Год выпуска: 1999
Страна: США
Жанр: драма, комедия, спорт
Продолжительность: 02:03:57
Перевод: профессиональный двухголосый, авторский

Режиссёр: Рон Шелтон

В ролях: Антонио Бандерас, Вуди Харрельсон, Лолита Давидович, Том Сайзмор, Люси Лью, Роберт Вагнер, Ричард Мэсур, Уилли Гарсон, Силк Козарт, Джек Картер, Аида Туртурро, Луи Леонардо, Слэйд Барнетт, Камерон Милцер, Хулио Гарсия, Джонни Ортиз, Джорди Окланд, Уильям Ютей, Джозеф Арсено, Фред Льюис, Морис Сингер, Роберт Сейл, Джо Кортез, Брюс Буффер, Тедди Атлас, Дэна Ли, Роб Ингерсолл, Робби Робинсон, Митч Халперн, Чак Халл

Описание: Винс и Цезарь - близкие друзья и профессиональные боксеры, подававшие в прошлом большие надежды, но однажды упустившие свой шанс. У обоих за плечами немало выигранных поединков, а сейчас, ведя обыкновенную, размеренную жизнь, они еле сводят концы с концами и не ждут перемен. Однако в глубине души у обоих ещё живет надежда на прорыв, подогреваемая юношеской мечтой о большом спорте, и желание повернуть судьбу вспять, победив в большой игре. И вот фортуна, кажется, улыбается им. Их приглашают провести поединок в Лас-Вегасе, обещая большие деньги, и, главное, право драться за звание чемпиона. И вот давно забытые боль и азарт, разжигаемые ликующей публикой, возвращаются вновь, воскрешая в памяти горечь былых поражений и сладостный вкус приближающейся победы...



Качество: BDRip 1080p Сравнение с исходником
Формат: MKV
Видео: MPEG-4 AVC, 12.6 Mбит/с, 1920x822, 23,976 кадра/с
Аудио 1: русский, AC3, 448 kbps, 6 ch, 48 kHz [профессиональный двухголосый]
Аудио 2: русский, DTS, 1509 kbps, 2 ch, 48 kHz [авторский, Сергей Визгунов]
Аудио 3: русский, DTS, 1509 kbps, 2 ch, 48 kHz [авторский, Юрий Живов]
Аудио 4: английский, DTS, 1509 kbps, 2 ch, 48 kHz [оригинал]
Субтитры 1: русские
Субтитры 2: английские
Общее
Уникальный идентификатор : 214283967892406655427939900512469387297 (0xA135974E2CDE407D88FCADD18F1E0821)
Полное имя : D:\Video\Бей в кость.1999.BDRip.1080p.mkv
Формат : Matroska
Версия формата : Version 4 / Version 2
Размер файла : 15,2 Гбайт
Продолжительность : 2 ч. 3 м.
Общий поток : 17,5 Мбит/сек
Дата кодирования : UTC 2016-05-07 09:29:14
Программа кодирования : mkvmerge v8.2.0 ('World of Adventure') 64bit
Библиотека кодирования : libebml v1.3.1 + libmatroska v1.4.2

Видео
Идентификатор : 1
Формат : AVC
Формат/Информация : Advanced Video Codec
Профиль формата : High@L4.1
Параметр CABAC формата : Да
Параметр ReFrames формата : 4 кадра
Идентификатор кодека : V_MPEG4/ISO/AVC
Продолжительность : 2 ч. 3 м.
Битрейт : 12,6 Мбит/сек
Ширина : 1920 пикселей
Высота : 822 пикселя
Соотношение сторон : 2,35:1
Режим частоты кадров : Постоянный
Частота кадров : 23,976 (24000/1001) кадра/сек
Цветовое пространство : YUV
Субдискретизация насыщенности : 4:2:0
Битовая глубина : 8 бит
Тип развёртки : Прогрессивная
Бит/(Пиксели*Кадры) : 0.332
Размер потока : 10,9 Гбайт (72%)
Библиотека кодирования : x264 core 146 r2538 121396c
Настройки программы : cabac=1 / ref=4 / deblock=1:-3:-3 / analyse=0x3:0x113 / me=umh / subme=10 / psy=1 / psy_rd=1.00:0.15 / mixed_ref=1 / me_range=32 / chroma_me=1 / trellis=2 / 8x8dct=1 / cqm=0 / deadzone=21,11 / fast_pskip=1 / chroma_qp_offset=-3 / threads=6 / lookahead_threads=1 / sliced_threads=0 / nr=0 / decimate=1 / interlaced=0 / bluray_compat=0 / constrained_intra=0 / bframes=8 / b_pyramid=2 / b_adapt=2 / b_bias=0 / direct=1 / weightb=1 / open_gop=0 / weightp=2 / keyint=230 / keyint_min=23 / scenecut=40 / intra_refresh=0 / rc_lookahead=40 / rc=crf / mbtree=0 / crf=19.0 / qcomp=0.60 / qpmin=0 / qpmax=69 / qpstep=4 / vbv_maxrate=40000 / vbv_bufsize=50000 / crf_max=0.0 / nal_hrd=none / filler=0 / ip_ratio=1.40 / pb_ratio=1.30 / aq=1:1.00
Язык : English
Default : Да
Forced : Нет

Аудио #1
Идентификатор : 2
Формат : AC-3
Формат/Информация : Audio Coding 3
Расширение режима : CM (complete main)
Параметр Endianness формата : Big
Идентификатор кодека : A_AC3
Продолжительность : 2 ч. 3 м.
Вид битрейта : Постоянный
Битрейт : 448 Кбит/сек
Каналы : 6 каналов
Расположение каналов : Front: L C R, Side: L R, LFE
Частота : 48,0 КГц
Частота кадров : 31,250 кадров/сек (1536 spf)
Метод сжатия : С потерями
Размер потока : 397 Мбайт (3%)
Заголовок : DVO
Язык : Russian
Default : Да
Forced : Нет

Аудио #2
Идентификатор : 3
Формат : DTS
Формат/Информация : Digital Theater Systems
Режим : 16
Параметр Endianness формата : Big
Идентификатор кодека : A_DTS
Продолжительность : 2 ч. 3 м.
Вид битрейта : Постоянный
Битрейт : 1509 Кбит/сек
Каналы : 2 канала
Расположение каналов : Front: L R
Частота : 48,0 КГц
Частота кадров : 93,750 кадра/сек (512 spf)
Битовая глубина : 24 бит
Метод сжатия : С потерями
Размер потока : 1,31 Гбайт (9%)
Заголовок : AVO (Сергей Визгунов)
Язык : Russian
Default : Нет
Forced : Нет

Аудио #3
Идентификатор : 4
Формат : DTS
Формат/Информация : Digital Theater Systems
Режим : 16
Параметр Endianness формата : Big
Идентификатор кодека : A_DTS
Продолжительность : 2 ч. 3 м.
Вид битрейта : Постоянный
Битрейт : 1509 Кбит/сек
Каналы : 2 канала
Расположение каналов : Front: L R
Частота : 48,0 КГц
Частота кадров : 93,750 кадра/сек (512 spf)
Битовая глубина : 24 бит
Метод сжатия : С потерями
Размер потока : 1,31 Гбайт (9%)
Заголовок : AVO (Юрий Живов)
Язык : Russian
Default : Нет
Forced : Нет

Аудио #4
Идентификатор : 5
Формат : DTS
Формат/Информация : Digital Theater Systems
Режим : 16
Параметр Endianness формата : Big
Идентификатор кодека : A_DTS
Продолжительность : 2 ч. 3 м.
Вид битрейта : Постоянный
Битрейт : 1509 Кбит/сек
Каналы : 2 канала
Расположение каналов : Front: L R
Частота : 48,0 КГц
Частота кадров : 93,750 кадра/сек (512 spf)
Битовая глубина : 24 бит
Метод сжатия : С потерями
Размер потока : 1,31 Гбайт (9%)
Заголовок : Original
Язык : English
Default : Нет
Forced : Нет

Текст #1
Идентификатор : 6
Формат : UTF-8
Идентификатор кодека : S_TEXT/UTF8
Идентификатор кодека/Информация : UTF-8 Plain Text
Продолжительность : 1 ч. 59 м.
Битрейт : 106 бит/сек
Count of elements : 1682
Размер потока : 92,9 Кбайт (0%)
Заголовок : русский
Язык : Russian
Default : Нет
Forced : Нет

Текст #2
Идентификатор : 7
Формат : UTF-8
Идентификатор кодека : S_TEXT/UTF8
Идентификатор кодека/Информация : UTF-8 Plain Text
Продолжительность : 1 ч. 57 м.
Битрейт : 77 бит/сек
Count of elements : 1742
Размер потока : 66,6 Кбайт (0%)
Заголовок : английский
Язык : English
Default : Нет
Forced : Нет
pb.wtf



Скачать Бей в кость через торрент http://s019.radikal.ru/i623/1605/74/804ee0df2862.jpg Скачать фильм Бей в кость через торрент бесплантно в хорошем качестве Описание: Винс и Цезарь - близкие друзья и профессиональные боксеры, подававшие в прошлом большие надежды, но однажды упустившие свой шанс. ... 10 10 3
Info! Золотая раздача, скачанное не засчитывается.
Торрент: Зарегистрирован [2016-05-08 06:13] · скачан: 11 раз
Статус: √ проверено
Размер: 15.18 GB
Как cкачать? Как скачать Бей в кость через торрент | qTorrent

% Раздел Тема Автор DL S | L
Фильмы [HD 720p, 1080p] (Хороший звук DUB, MVO) [ 4.83 GB ] Бей в кость / Play It to the Bone [1999 BDRip 720p by msltel] DVO 2 x AVO msltel Скачать
1 | 0

28-11-2019 20:33  

Отключить всю рекламу на сайте

    Дорогой пользователь! Огромная просьба, поблагодарите релизера, оцените раздачу и оставьте свои комментарий, если Вы скачали Бей в кость через торрент бесплатно! Внесите свою лепту в развитие PiratBit!
    Комментировать посты могут только пользователи прошедшие не сложную регистрацию
    Показать сообщения:    

    Бей в кость через торрент
    Скачать бесплатно Бей в кость
    Бей в кость скачать торрент
    Бей в кость смотреть онлайн
    Cкачать фильм Бей в кость бесплатно
    Бей в кость скачать торрент в хорошем качестве
    Бей в кость смотреть онлайн бесплатно в хорошем качестве


    Вы не можете начинать темы
    Вы не можете отвечать на сообщения
    Вы не можете редактировать свои сообщения
    Вы не можете удалять свои сообщения
    Вы не можете голосовать в опросах
    Вы не можете прикреплять файлы к сообщениям
    Вы можете скачивать файлы