Всегда рабочее зеркало просто перед .vidak.icu напиши любое слово или цифру, Пример http://0io.vidak.icu

>

7.4

iTunes

7.4

2 сезон

9.4

1 сезон

1

7.4

2 сезон

7.2

iTunes

6.0

MVO

13

6.1

iTunes

8.3

Пиратка

30

ULTIMATE

pack

9.9

Лицензия

ВАЖНО

ИГРА 18+

pack

7.3

RePack

MK11

7.7

RePack

jed

7.8

RePack

fifa19

8.5

RePack

RDR2

RePack

NEED FOR SPEED™ PAYBACK

1 сезон

9 сезон

Бесстыжие 9 сезон

Все сериалы

все сериалы на PB.wtf

RePack

FAR CRY 5

Anonymous, доброй ночи, мы катастрофически не успеваем собрать деньги на оплату серверов, помогите нам пожалуйста 5,10,15р., для нас важна любая помощь . В качестве благодарности мы отключим Вам всю рекламу на сайте (укажите свой ник в строку Ваше имя)!

×
  
Magnet ссылка

Бессмертная / L'immortelle (Ален Роб-Грийе) [1963, драма, BDRip 720p by msltel] AVO pb.wtf

Бессмертная через торрент pb.wtf

Размер: 4.82 GB | Добавлен: 5 лет 8 мес. назад | Торрент скачан:2 раза
Смотреть онлайн Бессмертная | Скачать    Ребята, помогите собрать деньги на оплату серверов!!!

08-05-2016 09:33 Бессмертная Скачать торрент  

Название: Бессмертная
Оригинальное название: L'immortelle
Год выпуска: 1963
Страна: Турция, Италия, Франция
Жанр: драма
Продолжительность: 01:41:41
Перевод: авторский

Режиссёр: Ален Роб-Грийе

В ролях: Франсуаза Брион, Жак Дониоль-Валькроз, Гуидо Челано, Сезер Сезин, Катрин Роб-Грийе

Описание: Вы в Стамбуле, Вы иностранец, Вы заблудились. Неизменная последовательность кадров, разворачивающаяся с каждым новым возвращением к ним, стирает разницу между событием и воспоминанием. Теряется ощущение реальности, странной и беспокойной, начинается раздвоение. Герой уже не уверен, что происходящее ему не снится. Зовут ли девушку Лали? мечеть это или музей мореходства? не померещился ли ему тюльпан на турецком ковре? есть ли у него служанка? Когда надо - её нет. Кто этот рыбак на ступеньках, ведущих к морю? Здесь нет рыбака. Где адрес, написанный девушкой на брошенном в траву листке? какой адрес?...



Качество: BDRip 720p Сравнение с исходником
Формат: MKV
Видео: MPEG-4 AVC, 6402 Кбит/с, 1200x720, 23,976 кадра/с
Аудио 1: русский, AC3, 192 kbps, 2 ch, 48 kHz [авторский, Антон Алексеев]
Аудио 2: английский, AC3, 192 kbps, 2 ch, 48 kHz [оригинал]
Субтитры 1: русские
Субтитры 2: английские
Общее
Уникальный идентификатор : 206614871564291119791082236758713827102 (0x9B7093A9D44B77C3B515BF230BF9FF1E)
Полное имя : D:\Video\Бессмертная.1963.BDRip.720p.mkv
Формат : Matroska
Версия формата : Version 4 / Version 2
Размер файла : 4,82 Гбайт
Продолжительность : 1 ч. 41 м.
Общий поток : 6788 Кбит/сек
Дата кодирования : UTC 2016-05-07 13:00:17
Программа кодирования : mkvmerge v8.2.0 ('World of Adventure') 64bit
Библиотека кодирования : libebml v1.3.1 + libmatroska v1.4.2

Видео
Идентификатор : 1
Формат : AVC
Формат/Информация : Advanced Video Codec
Профиль формата : High@L4.1
Параметр CABAC формата : Да
Параметр ReFrames формата : 9 кадров
Идентификатор кодека : V_MPEG4/ISO/AVC
Продолжительность : 1 ч. 41 м.
Битрейт : 6402 Кбит/сек
Ширина : 1200 пикселей
Высота : 720 пикселей
Соотношение сторон : 5:3
Режим частоты кадров : Постоянный
Частота кадров : 23,976 (24000/1001) кадра/сек
Цветовое пространство : YUV
Субдискретизация насыщенности : 4:2:0
Битовая глубина : 8 бит
Тип развёртки : Прогрессивная
Бит/(Пиксели*Кадры) : 0.309
Размер потока : 4,55 Гбайт (94%)
Библиотека кодирования : x264 core 146 r2538 121396c
Настройки программы : cabac=1 / ref=9 / deblock=1:-3:-3 / analyse=0x3:0x113 / me=umh / subme=10 / psy=1 / psy_rd=1.00:0.15 / mixed_ref=1 / me_range=32 / chroma_me=1 / trellis=2 / 8x8dct=1 / cqm=0 / deadzone=21,11 / fast_pskip=1 / chroma_qp_offset=-3 / threads=6 / lookahead_threads=1 / sliced_threads=0 / nr=0 / decimate=1 / interlaced=0 / bluray_compat=0 / constrained_intra=0 / bframes=11 / b_pyramid=2 / b_adapt=2 / b_bias=0 / direct=1 / weightb=1 / open_gop=0 / weightp=2 / keyint=230 / keyint_min=23 / scenecut=40 / intra_refresh=0 / rc_lookahead=40 / rc=crf / mbtree=0 / crf=19.5 / qcomp=0.60 / qpmin=0 / qpmax=69 / qpstep=4 / vbv_maxrate=40000 / vbv_bufsize=50000 / crf_max=0.0 / nal_hrd=none / filler=0 / ip_ratio=1.40 / pb_ratio=1.30 / aq=1:1.00
Язык : French
Default : Да
Forced : Нет

Аудио #1
Идентификатор : 2
Формат : AC-3
Формат/Информация : Audio Coding 3
Расширение режима : CM (complete main)
Параметр Endianness формата : Big
Идентификатор кодека : A_AC3
Продолжительность : 1 ч. 41 м.
Вид битрейта : Постоянный
Битрейт : 192 Кбит/сек
Каналы : 2 канала
Расположение каналов : Front: L R
Частота : 48,0 КГц
Частота кадров : 31,250 кадров/сек (1536 spf)
Метод сжатия : С потерями
Размер потока : 140 Мбайт (3%)
Заголовок : AVO (Антон Алексеев)
Язык : Russian
Default : Да
Forced : Нет

Аудио #2
Идентификатор : 3
Формат : AC-3
Формат/Информация : Audio Coding 3
Расширение режима : CM (complete main)
Параметр Endianness формата : Big
Идентификатор кодека : A_AC3
Продолжительность : 1 ч. 41 м.
Вид битрейта : Постоянный
Битрейт : 192 Кбит/сек
Каналы : 2 канала
Расположение каналов : Front: L R
Частота : 48,0 КГц
Частота кадров : 31,250 кадров/сек (1536 spf)
Метод сжатия : С потерями
Размер потока : 140 Мбайт (3%)
Заголовок : Original
Язык : French
Default : Нет
Forced : Нет

Текст #1
Идентификатор : 4
Формат : UTF-8
Идентификатор кодека : S_TEXT/UTF8
Идентификатор кодека/Информация : UTF-8 Plain Text
Продолжительность : 1 ч. 36 м.
Битрейт : 36 бит/сек
Count of elements : 285
Размер потока : 26,2 Кбайт (0%)
Заголовок : русский
Язык : Russian
Default : Нет
Forced : Нет

Текст #2
Идентификатор : 5
Формат : UTF-8
Идентификатор кодека : S_TEXT/UTF8
Идентификатор кодека/Информация : UTF-8 Plain Text
Продолжительность : 1 ч. 36 м.
Битрейт : 36 бит/сек
Count of elements : 583
Размер потока : 26,2 Кбайт (0%)
Заголовок : английский
Язык : English
Default : Нет
Forced : Нет
pb.wtf



Скачать Бессмертная через торрент http://i026.radikal.ru/1605/d2/c81f004faa73.jpg Скачать, смотреть онлайн Бессмертная бесплантно в хорошем качестве Описание: Вы в Стамбуле, Вы иностранец, Вы заблудились. Неизменная последовательность кадров, разворачивающаяся с каждым новым возвращением ... 10 10 1
Info! Золотая раздача, скачанное не засчитывается.
Торрент: Зарегистрирован [2016-05-08 09:33] · скачан: 2 раз
Статус: √ проверено
Размер: 4.82 GB
Как cкачать? Как скачать Бессмертная через торрент | UTorrent

28-11-2019 20:33  

Отключить всю рекламу на сайте

08-05-2016 14:42 Бессмертная Скачать торрент  

описание совсем непонятно , о чом же фильм?pb.wtf



    Дорогой пользователь! Огромная просьба, поблагодарите релизера, оцените раздачу и оставьте свои комментарий, если Вы скачали Бессмертная через торрент бесплатно!
    Комментировать посты могут только пользователи прошедшие не сложную регистрацию
    Показать сообщения:    

    Бессмертная через торрент
    Скачать бесплатно Бессмертная
    Бессмертная скачать торрент
    Бессмертная смотреть онлайн
    Cкачать фильм Бессмертная бесплатно
    Бессмертная скачать торрент в хорошем качестве
    Бессмертная смотреть онлайн бесплатно в хорошем качестве


    Вы не можете начинать темы
    Вы не можете отвечать на сообщения
    Вы не можете редактировать свои сообщения
    Вы не можете удалять свои сообщения
    Вы не можете голосовать в опросах
    Вы не можете прикреплять файлы к сообщениям
    Вы можете скачивать файлы