Ссылка на приватное зеркало нашего сайта всего за 1$. Внимание количество ограничено!!!

2 сезон

iTunes

1 сезон

1

iTunes

iTunes

iTunes

1 сезон

RePack

30

ИГРА 18+

pack

ВАЖНО

!!Акция!!

Alien_RageХит недели

RePack

MK11
pack

Забери бонус

RePack

jed

!!Акция!!

Alien_Rage

RePack

fifa19

RePack

Assassins Creed: Odyssey

RePack

NEED FOR SPEED™ PAYBACK

4 сезон

9 сезон

Бесстыжие 9 сезон

Все сериалы

все сериалы на PB.wtf

RePack

FAR CRY 5
  

Апперкот для Гитлера/ Серии: 1-4 из 4 (Денис Нейманд) [2015, военный,драма, SATRip-AVC] pb.wtf

Апперкот для Гитлера через торрент pb.wtf

Размер: 2.32 GB | Добавлен: 4 года 5 мес. назад | Торрент скачан:340 раз
Скачать  

08-05-2016 18:09 Апперкот для Гитлера Скачать торрент  

Апперкот для Гитлера






Год выпуска: 2015
Производство: Россия,«Марс Медиа»
Жанр: военный,драма
Продолжительность: 00:44:00
Субтитры: нет




Режиссёр: Денис Нейманд



В ролях: Антон Момот, Полина Толстун, Андрей Лёвин, Сергей Барковский, Вадим Сквирский, Алексей Эйбоженко (мл.), Дмитрий Сутырин, Игорь Черневич, Артур Харитоненко, Наталья Высочанская, Анатолий Дзиваев, Елена Симонова, Владимир Лабецкий, Дмитрий Гудим, Вера Карпова, Жорж Девдариани, Марина Даминева, Оливье Сиу, Дмитрий Лебедев, Татьяна Аптикеева



Описание: В разгар ожесточенных боев под Ленинградом молодой офицер — бывший боксер Игорь Миклашевский — под видом дезертира-перебежчика попадает в Германию. Пережив ужасы дознаний и пыток, разведчик привлекает внимание штандартенфюрера Вальтера Шлосса, который, будучи азартным игроком, собирается сделать Игоря своим личным «гладиатором».
Не выдать себя Миклашевскому помогают нежные чувства к связной — француженке русского происхождения Анастасии Шуваловой. Побеждая одного соперника за другим, Игорь знакомится с высшим обществом Третьего Рейха и приближается к своей главной цели — Адольфу Гитлеру, которого ждет мощный апперкот…









Качество: SATRip
Формат: MKV
Видео кодек: H.264
Аудио кодек: AC3
Видео: MPEG-4 AVC, 720х400,25fps,~1650 Кбит/сек,Bits/Pixel 0.229
Аудио: AC3, 48 kHz, ~192 Kbps, 2 канала



Общее
Уникальный идентификатор : 191277193601099257451288427904899538804 (0x8FE6A5C17A0D596AB49AE1094DA4DF74)
Полное имя : D:\Апперкот для Гитлера\01 серия_Апперкот для Гитлера_rip by_Aleksan55.mkv
Формат : Matroska
Версия формата : Version 2
Размер файла : 592 Мбайт
Продолжительность : 44 м.
Общий поток : 1844 Кбит/сек
Дата кодирования : UTC 2016-05-08 10:42:30
Программа кодирования : mkvmerge v7.8.0 ('River Man') 32bit built on Apr 3 2015 12:11:22
Библиотека кодирования : libebml v1.3.1 + libmatroska v1.4.2

Видео
Идентификатор : 1
Формат : AVC
Формат/Информация : Advanced Video Codec
Профиль формата : High@L4.1
Параметр CABAC формата : Да
Параметр ReFrames формата : 13 кадров
Идентификатор кодека : V_MPEG4/ISO/AVC
Продолжительность : 44 м.
Битрейт : 1650 Кбит/сек
Ширина : 720 пикселей
Высота : 400 пикселей
Соотношение сторон : 16:9
Режим частоты кадров : Постоянный
Частота кадров : 25,000 кадров/сек
Цветовое пространство : YUV
Субдискретизация насыщенности : 4:2:0
Битовая глубина : 8 бит
Тип развёртки : Прогрессивная
Бит/(Пиксели*Кадры) : 0.229
Размер потока : 519 Мбайт (88%)
Библиотека кодирования : x264 core 146 r2538 121396c
Настройки программы : cabac=1 / ref=13 / deblock=1:-2:-2 / analyse=0x3:0x113 / me=umh / subme=9 / psy=1 / psy_rd=1.00:0.15 / mixed_ref=0 / me_range=32 / chroma_me=1 / trellis=2 / 8x8dct=1 / cqm=0 / deadzone=21,11 / fast_pskip=1 / chroma_qp_offset=-3 / threads=4 / lookahead_threads=4 / sliced_threads=0 / nr=0 / decimate=1 / interlaced=0 / bluray_compat=0 / constrained_intra=0 / bframes=13 / b_pyramid=2 / b_adapt=1 / b_bias=0 / direct=3 / weightb=1 / open_gop=0 / weightp=2 / keyint=250 / keyint_min=25 / scenecut=40 / intra_refresh=0 / rc_lookahead=40 / rc=2pass / mbtree=1 / bitrate=1650 / ratetol=1.0 / qcomp=0.60 / qpmin=0 / qpmax=69 / qpstep=4 / cplxblur=20.0 / qblur=0.5 / ip_ratio=1.40 / aq=1:1.20
Default : Да
Forced : Нет
Цветовой диапазон : Limited
Основные цвета : BT.601 PAL
Характеристики трансфера : BT.470 System B, BT.470 System G
Коэффициенты матрицы : BT.601

Аудио
Идентификатор : 2
Формат : AC-3
Формат/Информация : Audio Coding 3
Расширение режима : CM (complete main)
Параметр Endianness формата : Big
Идентификатор кодека : A_AC3
Продолжительность : 44 м.
Вид битрейта : Постоянный
Битрейт : 192 Кбит/сек
Каналы : 2 канала
Расположение каналов : Front: L R
Частота : 48,0 КГц
Метод сжатия : С потерями
Размер потока : 61,6 Мбайт (10%)
Default : Да
Forced : Нет





Рекламы нет.pb.wtf



Скачать Апперкот для Гитлера через торрент http://s50.radikal.ru/i128/1605/38/572e79d943a6.jpg Скачать фильм Апперкот для Гитлерачерез торрент бесплантно в хорошем качестве Описание: В разгар ожесточенных боев под Ленинградом молодой офицер — бывший боксер Игорь Миклашевский — под видом дезертира-перебежчика ... 8.9 10 17
Info! Золотая раздача, скачанное не засчитывается.
Торрент: Зарегистрирован [2016-05-08 18:09] · скачан: 340 раз
Статус: √ проверено
Размер: 2.32 GB
Как cкачать? Как скачать Апперкот для Гитлера через торрент | qTorrent

% Раздел Тема Автор DL S | L
R.G.Resident - Сериалы, Видео [ 1.95 GB ] Апперкот для Гитлера [2016 военный история HDTVRip-AVC [Русский] От R.G.Resident White Smoke Скачать
1 | 0
Наши сериалы [ 2.44 GB ] Апперкот для Гитлера [2016 военный история SATRip [Русский] White Smoke Скачать
1 | 0

28-11-2019 20:33  

Отключить всю рекламу на сайте

08-05-2016 18:35 Апперкот для Гитлера Скачать торрент  

Цитата:

Раздача со статусом Золото благодаря: rdisar(5000)

pb.wtf



    Дорогой пользователь! Огромная просьба, поблагодарите релизера, оцените раздачу и оставьте свои комментарий, если Вы скачали Апперкот для Гитлера через торрент бесплатно! Внесите свою лепту в развитие PiratBit!
    Комментировать посты могут только пользователи прошедшие не сложную регистрацию
    Показать сообщения:    

    Апперкот для Гитлера через торрент
    Скачать бесплатно Апперкот для Гитлера
    Апперкот для Гитлера скачать торрент
    Апперкот для Гитлера смотреть онлайн
    Cкачать фильм Апперкот для Гитлера бесплатно
    Апперкот для Гитлера скачать торрент в хорошем качестве
    Апперкот для Гитлера смотреть онлайн бесплатно в хорошем качестве


    Вы не можете начинать темы
    Вы не можете отвечать на сообщения
    Вы не можете редактировать свои сообщения
    Вы не можете удалять свои сообщения
    Вы не можете голосовать в опросах
    Вы не можете прикреплять файлы к сообщениям
    Вы можете скачивать файлы