Ссылка на приватное зеркало нашего сайта всего за 1$. Внимание количество ограничено!!!

2 сезон

iTunes

1 сезон

1

2 сезон

2 сезон

iTunes

1 сезон

RePack

30

Ultimate

ВАЖНО

ИГРА 18+

pack

RePack

MK11
pack

Забери бонус

RePack

jed

!!Акция!!

Alien_Rage

RePack

fifa19

RePack

Assassins Creed: Odyssey

RePack

NEED FOR SPEED™ PAYBACK

4 сезон

9 сезон

Бесстыжие 9 сезон

Все сериалы

все сериалы на PB.wtf

RePack

FAR CRY 5
  

Дедушка легкого поведения / Dirty Grandpa (Дэн Мазер) (Расширенная версия) [2016, комедия, BDRip 720р] Дубляж] iTunes R.G.Resident pb.wtf

Дедушка легкого поведения через торрент pb.wtf

Размер: 5.12 GB | Добавлен: 4 года 6 мес. назад | Торрент скачан:309 раз
Скачать  

09-05-2016 03:31 Дедушка легкого поведения Скачать торрент  

Дедушка легкого поведения / Dirty Grandpa
««This is Jason. He's a little worried about his grandpa»»

Год выпуска: 2016
Страна: США
Жанр: комедия
Продолжительность: 01:49:34
Перевод: Дубляж - [Лицензия / iTunes]
Примечание: UNRATED - расширенная версия, длиннее российской прокатной на ~8 минут. Не хватает около 7 минут перевода, переведено Русскими субтитрами "Google Translate".
Субтитры: русские (Forced), английские (Full), английские (SDH)
Режиссер: Дэн Мазер
В ролях:

Роберт Де Ниро (Dick Kelly), Зак Эфрон (Jason Kelly), Зои Дойч (Shadia), Обри Плаза (Lenore), Джейсон Манцукас (Tan Pam), Дермот Малруни (David Kelly), Джулианна Хаф (Meredith), Джеффри Бауэр-Чепман (Bradley), Брэндон Майкал Смит (Tyrone), Джейк Пикинг (Cody), Майкл Хадсон (Brah), Адам Палли (Cousin Nick)
Описание:
Джейсон, покладистый правильный парень, накануне свадьбы вляпывается в увеселительную поездку к морю со своим дедом, отставным генералом с легким нравом, бурной фантазией и вполне определенными потребностями... И, похоже, дедские каникулы изменят жизнь Джейсона навсегда!
Мировая премьера: 20 января 2016

MPAA: R - Лицам до 17 лет обязательно присутствие взрослого
Качество: BDRip 720p Rip by schultz R.G.Resident
Формат: MKV
Видео: AVC, 1280x534 (2.40:1), 5670 kbps, 23,976 fps, 0,346 bpp
Аудио №1: русский / AC3 / 5.1 / 48 kHz / 384 kbps / 16 bit
Аудио №2: английский / AC3 / 5.1 / 48 kHz / 640 kbps / 16 bit

Код:

General
Unique ID                                : 229264830598943202611326689494095653691 (0xAC7ACCDCD373F609ADF6C5FCDC586B3B)
Complete name                            : D:\download\Dirty Grandpa. 2016. Unrated. BDRip 720р by schultz R.G.Resident.mkv
Format                                   : Matroska
Format version                           : Version 4 / Version 2
File size                                : 5.12 GiB
Duration                                 : 1h 49mn
Overall bit rate                         : 6 692 Kbps
Encoded date                             : UTC 2016-05-09 02:56:19
Writing application                      : mkvmerge v8.9.0 ('Father Daughter') 64bit
Writing library                          : libebml v1.3.3 + libmatroska v1.4.4
DURATION                                 : 01:43:49.156000000
NUMBER_OF_FRAMES                         : 1937
NUMBER_OF_BYTES                          : 74380
_STATISTICS_WRITING_APP                  : mkvmerge v8.9.0 ('Father Daughter') 64bit
_STATISTICS_WRITING_DATE_UTC             : 2016-05-09 02:56:19
_STATISTICS_TAGS                         : BPS DURATION NUMBER_OF_FRAMES NUMBER_OF_BYTES

Video
ID                                       : 1
Format                                   : AVC
Format/Info                              : Advanced Video Codec
Format profile                           : High@L4.1
Format settings, CABAC                   : Yes
Format settings, ReFrames                : 11 frames
Codec ID                                 : V_MPEG4/ISO/AVC
Duration                                 : 1h 49mn
Bit rate                                 : 5 670 Kbps
Width                                    : 1 280 pixels
Height                                   : 534 pixels
Display aspect ratio                     : 2.40:1
Frame rate                               : 23.976 fps
Color space                              : YUV
Chroma subsampling                       : 4:2:0
Bit depth                                : 8 bits
Scan type                                : Progressive
Bits/(Pixel*Frame)                       : 0.346
Stream size                              : 4.24 GiB (83%)
Writing library                          : x264 core 146 r2538 121396c
Encoding settings                        : cabac=1 / ref=11 / deblock=1:-3:-3 / analyse=0x3:0x113 / me=umh / subme=11 / psy=1 / psy_rd=1.00:0.00 / mixed_ref=1 / me_range=48 / chroma_me=1 / trellis=2 / 8x8dct=1 / cqm=0 / deadzone=21,11 / fast_pskip=0 / chroma_qp_offset=-2 / threads=12 / lookahead_threads=3 / sliced_threads=0 / nr=0 / decimate=1 / interlaced=0 / bluray_compat=0 / constrained_intra=0 / bframes=12 / b_pyramid=2 / b_adapt=2 / b_bias=0 / direct=3 / weightb=1 / open_gop=0 / weightp=2 / keyint=240 / keyint_min=23 / scenecut=40 / intra_refresh=0 / rc_lookahead=40 / rc=2pass / mbtree=1 / bitrate=5670 / ratetol=1.0 / qcomp=0.60 / qpmin=0 / qpmax=69 / qpstep=4 / cplxblur=20.0 / qblur=0.5 / vbv_maxrate=14000 / vbv_bufsize=14000 / nal_hrd=none / filler=0 / ip_ratio=1.40 / aq=1:1.00
Language                                 : English
Default                                  : Yes
Forced                                   : No
DURATION                                 : 01:49:34.621000000
NUMBER_OF_FRAMES                         : 157633
NUMBER_OF_BYTES                          : 4656333206
_STATISTICS_WRITING_APP                  : mkvmerge v8.9.0 ('Father Daughter') 64bit
_STATISTICS_WRITING_DATE_UTC             : 2016-05-09 02:56:19
_STATISTICS_TAGS                         : BPS DURATION NUMBER_OF_FRAMES NUMBER_OF_BYTES

Audio #1
ID                                       : 2
Format                                   : AC-3
Format/Info                              : Audio Coding 3
Mode extension                           : CM (complete main)
Codec ID                                 : A_AC3
Duration                                 : 1h 49mn
Bit rate mode                            : Constant
Bit rate                                 : 384 Kbps
Channel(s)                               : 6 channels
Channel positions                        : Front: L C R, Side: L R, LFE
Sampling rate                            : 48.0 KHz
Bit depth                                : 16 bits
Compression mode                         : Lossy
Stream size                              : 301 MiB (6%)
Language                                 : Russian
Default                                  : Yes
Forced                                   : No

Audio #2
ID                                       : 3
Format                                   : AC-3
Format/Info                              : Audio Coding 3
Mode extension                           : CM (complete main)
Codec ID                                 : A_AC3
Duration                                 : 1h 49mn
Bit rate mode                            : Constant
Bit rate                                 : 640 Kbps
Channel(s)                               : 6 channels
Channel positions                        : Front: L C R, Side: L R, LFE
Sampling rate                            : 48.0 KHz
Bit depth                                : 16 bits
Compression mode                         : Lossy
Stream size                              : 502 MiB (10%)
Language                                 : English
Default                                  : No
Forced                                   : No

Text #1
ID                                       : 4
Format                                   : UTF-8
Codec ID                                 : S_TEXT/UTF8
Codec ID/Info                            : UTF-8 Plain Text
Title                                    : Forced
Language                                 : Russian
Default                                  : No
Forced                                   : No

Text #2
ID                                       : 5
Format                                   : UTF-8
Codec ID                                 : S_TEXT/UTF8
Codec ID/Info                            : UTF-8 Plain Text
Title                                    : Full
Language                                 : English
Default                                  : No
Forced                                   : No

Text #3
ID                                       : 6
Format                                   : UTF-8
Codec ID                                 : S_TEXT/UTF8
Codec ID/Info                            : UTF-8 Plain Text
Title                                    : SDH
Language                                 : English
Default                                  : No
Forced                                   : No

Menu
00:00:00.000                             : en:00:00:00.000
00:06:38.148                             : en:00:06:38.148
00:11:28.730                             : en:00:11:28.730
00:17:15.743                             : en:00:17:15.743
00:25:03.585                             : en:00:25:03.585
00:31:17.209                             : en:00:31:17.209
00:37:24.450                             : en:00:37:24.450
00:48:56.600                             : en:00:48:56.600
00:52:35.360                             : en:00:52:35.360
00:58:19.287                             : en:00:58:19.287
01:03:28.554                             : en:01:03:28.554
01:06:47.712                             : en:01:06:47.712
01:14:30.049                             : en:01:14:30.049
01:21:14.077                             : en:01:21:14.077
01:28:26.843                             : en:01:28:26.843
01:38:16.182                             : en:01:38:16.182



pb.wtf



Скачать Дедушка легкого поведения через торрент http://pic1.kartinco.top/images/10/ejpqs.jpg Скачать фильм Дедушка легкого поведения через торрент бесплантно в хорошем качестве Описание: Джейсон, покладистый правильный парень, накануне свадьбы вляпывается в увеселительную поездку к морю со своим дедом, отставным ... 8.5 10 11
Info! Золотая раздача, скачанное не засчитывается.
Торрент: Зарегистрирован [2016-05-09 03:31] · скачан: 309 раз
Статус: √ проверено
Размер: 5.12 GB
Как cкачать? Как скачать Дедушка легкого поведения через торрент | qTorrent

% Раздел Тема Автор DL S | L
R.G. Resident & PiratVoice - Фильмы, Видео [ 2.77 GB ] Дедушка легкого поведения / Dirty Grandpa [2016 BDRip-AVC от R.G. Resident] -Lexx- Скачать
2 | 0
R.G. Resident & PiratVoice - Фильмы, Видео [ 10.1 GB ] Дедушка легкого поведения / Dirty Grandpa [2016 BDRip 1080р] ] schultz Скачать
1 | 0

28-11-2019 20:33  

Отключить всю рекламу на сайте

31-10-2020 06:21 Дедушка легкого поведения Скачать торрент  

schultz, Мэн, можешь раздать?pb.wtf



    Дорогой пользователь! Огромная просьба, поблагодарите релизера, оцените раздачу и оставьте свои комментарий, если Вы скачали Дедушка легкого поведения через торрент бесплатно! Внесите свою лепту в развитие PiratBit!
    Комментировать посты могут только пользователи прошедшие не сложную регистрацию
    Показать сообщения:    

    Дедушка легкого поведения через торрент
    Скачать бесплатно Дедушка легкого поведения
    Дедушка легкого поведения скачать торрент
    Дедушка легкого поведения смотреть онлайн
    Cкачать фильм Дедушка легкого поведения бесплатно
    Дедушка легкого поведения скачать торрент в хорошем качестве
    Дедушка легкого поведения смотреть онлайн бесплатно в хорошем качестве


    Вы не можете начинать темы
    Вы не можете отвечать на сообщения
    Вы не можете редактировать свои сообщения
    Вы не можете удалять свои сообщения
    Вы не можете голосовать в опросах
    Вы не можете прикреплять файлы к сообщениям
    Вы можете скачивать файлы