Всегда рабочее зеркало без VPN и Proxy просто перед .vidak.icu напиши любое слово или цифру, Пример http://okpx.vidak.icu

MVO

Лицензия

1 сезон

1

1 сезон

iTunes

1 сезон

13

1 сезон

Deluxe

pack

Рекомендуем

Пиратка

30

ВАЖНО

RePack

MK11

RePack

jed

RePack

fifa19

RePack

RDR2

RePack

NEED FOR SPEED™ PAYBACK

Кинопоиск HD

6 сезон

 Острые козырьки 6 сезон

Все сериалы

все сериалы на PB.wtf

RePack

FAR CRY 5
  
Magnet ссылка

Вудлон / Woodlawn (Эндрю Эрвин, Эрвин Бразерс) [2015 г., драма, спорт, HDRip, Профессиональный многоголосый закадровый "iTunes"] pb.wtf

Вудлон через торрент pb.wtf

Размер: 2.18 GB | Добавлен: 6 лет 1 мес. назад | Торрент скачан:95 раз
Смотреть онлайн Вудлон | Скачать    Ребята, помогите собрать деньги на оплату серверов!!!

09-05-2016 09:16 Вудлон Скачать торрент  

Вудлон / Woodlawn
Год выпуска: 2015
Страна: США / Crescent City Pictures, Red Sky Studios
Жанр: драма, спорт
Продолжительность: 02:03:57
Перевод: Профессиональный многоголосый закадровый (iTunes)

Режиссер: Эндрю Эрвин, Эрвин Бразерс

IMDB 6.50 (3142)


В ролях: Шон Эстин, Ник Бишоп, Калеб Кастилло, Шерри Шеперд, Джон Войт, Джой Брансон, Лэнс Э. Николс, Девон Франклин, Си Томас Хауэлл, Кевин Сайзмор

Описание: Одаренный молодой футболист, опираясь на свой талант и веру, борется с этнической нетерпимостью, как на поле, так и вне его.

Качество: HDRip
Формат: AVI
Видео кодек: XviD
Аудио кодек: AC3
Видео: MPEG4, XviD, 720x304 (2.35:1), 23.976 fps, 2 121 Kbps (0.404 bit/pixel)
Аудио: AC-3, 48.0 KHz, 6 ch, 384 Kbps, CBR
скриншот   скриншот   скриншот   скриншот   скриншот   скриншот  

Общее
Полное имя : F:\кино\Вудлон.2015.HDRip.avi
Формат : AVI
Формат/Информация : Audio Video Interleave
Профиль формата : OpenDML
Размер файла : 2,18 Гбайт
Продолжительность : 2 ч. 3 м.
Общий поток : 2517 Кбит/сек
Программа кодирования : VirtualDubMod 1.5.10.3 | www.virtualdub-fr.org || (build 2550/release)
Библиотека кодирования : VirtualDubMod build 2550/release

Видео
Идентификатор : 0
Формат : MPEG-4 Visual
Профиль формата : Advanced Simple@L5
Параметр BVOP формата : 1
Параметр QPel формата : Нет
Параметр GMC формата : Без точки перехода
Параметр матрицы формата : Default (H.263)
Идентификатор кодека : XVID
Идентификатор кодека/Подсказка : XviD
Продолжительность : 2 ч. 3 м.
Битрейт : 2121 Кбит/сек
Ширина : 720 пикселей
Высота : 304 пикселя
Соотношение сторон : 2,35:1
Частота кадров : 23,976 (23976/1000) кадра/сек
Цветовое пространство : YUV
Субдискретизация насыщенности : 4:2:0
Битовая глубина : 8 бит
Тип развёртки : Прогрессивная
Метод сжатия : С потерями
Бит/(Пиксели*Кадры) : 0.404
Размер потока : 1,84 Гбайт (84%)
Библиотека кодирования : XviD 1.2.1 (UTC 2008-12-04)

Аудио
Идентификатор : 1
Формат : AC-3
Формат/Информация : Audio Coding 3
Расширение режима : CM (complete main)
Параметр Endianness формата : Big
Идентификатор кодека : 2000
Продолжительность : 2 ч. 3 м.
Вид битрейта : Постоянный
Битрейт : 384 Кбит/сек
Каналы : 6 каналов
Расположение каналов : Front: L C R, Side: L R, LFE
Частота : 48,0 КГц
Частота кадров : 31,250 кадров/сек (1536 spf)
Метод сжатия : С потерями
Размер потока : 340 Мбайт (15%)
Выравнивание : Разделение по промежуткам
Продолжительность промежутка : 42 мс. (1,00 видеокадр)
Время предзагрузки промежутка : 500 мс.

pb.wtf



Скачать Вудлон через торрент https://pic.kartinco.top/images/11/h37f1.jpg Скачать, смотреть онлайн Вудлон бесплантно в хорошем качестве Описание: Одаренный молодой футболист, опираясь на свой талант и веру, борется с этнической нетерпимостью, как на поле, так и вне ... 6 10 5
Info! Золотая раздача, скачанное не засчитывается.
Торрент: Зарегистрирован [2016-05-09 09:16] · скачан: 95 раз
Статус: √ проверено
Размер: 2.18 GB
Как cкачать? Как скачать Вудлон через торрент | UTorrent

% Раздел Тема Автор DL S | L
Релизы по Парсеру [Игры, Сериалы и Фильмы и другое...] [ 1.46 GB ] Вудлон / Woodlawn [2015 HDRip] MVO () sanekbest1 Скачать
1 | 0
Фильмы 2015 [DVDrip, WEB-DLRip, HDrip] [ 2.8 GB ] Вудлон / Woodlawn [2015 BDRip-AVC] MVO potroks Скачать
1 | 0
Фильмы 2015 [DVDrip, WEB-DLRip, HDrip] [ 1.46 GB ] Вудлон / Woodlawn [2015 BDRip-AVC] MVO potroks Скачать
1 | 0
Фильмы 2015 [DVDrip, WEB-DLRip, HDrip] [ 1.46 GB ] Вудлон / Woodlawn [2015 BDRip] Twi7ter Скачать
1 | 0
Фильмы 2015 [DVDrip, WEB-DLRip, HDrip] [ 2.05 GB ] Вудлон / Woodlawn [2015 HDRip] многоголосый Ворон Скачать
1 | 0

28-11-2019 20:33  

Отключить всю рекламу на сайте

09-05-2016 13:17 Вудлон Скачать торрент  

Цитата:

Вудлон / Woodlawn (Эндрю Эрвин, Эрвин Бразерс) [2015 г., драма, спорт, HDRip, Профессиональный многоголосый закадровый "iTunes"]

Это реально!!!pb.wtf



10-05-2016 13:28 Вудлон Скачать торрент  

у названия нет перевода?pb.wtf



    Дорогой пользователь! Огромная просьба, поблагодарите релизера, оцените раздачу и оставьте свои комментарий, если Вы скачали Вудлон через торрент бесплатно!
    Комментировать посты могут только пользователи прошедшие не сложную регистрацию
    Показать сообщения:    

    Вудлон через торрент
    Скачать бесплатно Вудлон
    Вудлон скачать торрент
    Вудлон смотреть онлайн
    Cкачать фильм Вудлон бесплатно
    Вудлон скачать торрент в хорошем качестве
    Вудлон смотреть онлайн бесплатно в хорошем качестве


    Вы не можете начинать темы
    Вы не можете отвечать на сообщения
    Вы не можете редактировать свои сообщения
    Вы не можете удалять свои сообщения
    Вы не можете голосовать в опросах
    Вы не можете прикреплять файлы к сообщениям
    Вы можете скачивать файлы