Ссылка на приватное зеркало нашего сайта всего за 1$. Внимание количество ограничено!!!

2 сезон

iTunes

1 сезон

1

2 сезон

2 сезон

iTunes

1 сезон

RePack

30

Ultimate

ВАЖНО

ИГРА 18+

pack

RePack

MK11
pack

Забери бонус

RePack

jed

!!Акция!!

Alien_Rage

RePack

fifa19

RePack

Assassins Creed: Odyssey

RePack

NEED FOR SPEED™ PAYBACK

4 сезон

9 сезон

Бесстыжие 9 сезон

Все сериалы

все сериалы на PB.wtf

RePack

FAR CRY 5
  

Секс фотографов / Sex Shooters (Chi Chi LaRue) [1992 г., Anal, oral, big dicks, general hardcore, condoms, DVDRip, Оригинальный] pb.wtf

Секс фотографов через торрент pb.wtf

Размер: 1.29 GB | Добавлен: 4 года 6 мес. назад | Торрент скачан:62 раза
Скачать  

10-05-2016 07:27 Секс фотографов Скачать торрент  

Секс фотографов / Sex Shooters
Год выпуска: 1992
Страна: USA
Жанр: anal, oral, big dicks, general hardcore, condoms
Продолжительность: 1:19:05
Перевод: Оригинальный

Режиссер: Chi Chi LaRue

В ролях: Adam Archer,B.J. Slater,Buck Buchanan,Chris Matt,David Griffin,Dylan Fox,Gino Amatti,Jeremy Foxx,Joey Morgan

Описание: BJ Slater, Adam Archer and Dylan Fox show you what a big-dicked guy with a video camera can do!

Качество: DVDRip
Формат: MP4
Видео кодек: AVC
Аудио кодек: AAC
Видео: 2198 Кбит/сек, 720*540 (4:3), 29.97кадров/сек,AVC
Аудио#1: 44100 КГц, 2 канала, 126 Кбит/сек, AAC
Общее
Полное имя : D:\врем\BitTorrent\Sex Shooters.mp4
Формат : MPEG-4
Профиль формата : Base Media / Version 2
Идентификатор кодека : mp42
Размер файла : 1,29 Гбайт
Продолжительность : 1 ч. 19 м.
Режим общего битрейта : Переменный
Общий поток : 2327 Кбит/сек
Дата кодирования : UTC 2013-08-17 09:59:42
Дата пометки : UTC 2013-08-17 09:59:42

Видео
Идентификатор : 2
Формат : AVC
Формат/Информация : Advanced Video Codec
Профиль формата : Baseline@L3.1
Параметр CABAC формата : Нет
Параметр ReFrames формата : 1 кадр
Идентификатор кодека : avc1
Идентификатор кодека/Информация : Advanced Video Coding
Продолжительность : 1 ч. 19 м.
Битрейт : 2198 Кбит/сек
Ширина : 720 пикселей
Высота : 540 пикселей
Соотношение сторон : 4:3
Режим частоты кадров : Постоянный
Частота кадров : 29,970 кадров/сек
Стандарт вещания : NTSC
Цветовое пространство : YUV
Субдискретизация насыщенности : 4:2:0
Битовая глубина : 8 бит
Тип развёртки : Прогрессивная
Бит/(Пиксели*Кадры) : 0.189
Размер потока : 1,21 Гбайт (94%)
Язык : English
Дата кодирования : UTC 2013-08-17 09:59:42
Дата пометки : UTC 2013-08-17 09:59:42
Цветовой диапазон : Limited

Аудио
Идентификатор : 1
Формат : AAC
Формат/Информация : Advanced Audio Codec
Профиль формата : LC
Идентификатор кодека : 40
Продолжительность : 1 ч. 19 м.
Вид битрейта : Переменный
Битрейт : 126 Кбит/сек
Максимальный битрейт : 269 Кбит/сек
Каналы : 2 канала
Расположение каналов : Front: L R
Частота : 44,1 КГц
Метод сжатия : С потерями
Размер потока : 71,1 Мбайт (5%)
Язык : English
Дата кодирования : UTC 2013-08-17 09:59:42
Дата пометки : UTC 2013-08-17 09:59:42

pb.wtf



pack Скачать Секс фотографов через торрент http://pic.kartinco.top/images/11/zoluc.jpg Скачать фильм Секс фотографов через торрент бесплантно в хорошем качестве Описание: BJ Slater, Adam Archer and Dylan Fox show you what a big-dicked guy with a video camera can ... 10 10 5
Торрент: Зарегистрирован [2016-05-10 07:27] · скачан: 62 раз
Статус: √ проверено
Размер: 1.29 GB
Как cкачать? Как скачать Секс фотографов через торрент | qTorrent

28-11-2019 20:33  

Отключить всю рекламу на сайте

    Дорогой пользователь! Огромная просьба, поблагодарите релизера, оцените раздачу и оставьте свои комментарий, если Вы скачали Секс фотографов через торрент бесплатно! Внесите свою лепту в развитие PiratBit!
    Комментировать посты могут только пользователи прошедшие не сложную регистрацию
    Показать сообщения:    

    Секс фотографов через торрент
    Скачать бесплатно Секс фотографов
    Секс фотографов скачать торрент
    Секс фотографов смотреть онлайн
    Cкачать фильм Секс фотографов бесплатно
    Секс фотографов скачать торрент в хорошем качестве
    Секс фотографов смотреть онлайн бесплатно в хорошем качестве


    Вы не можете начинать темы
    Вы не можете отвечать на сообщения
    Вы не можете редактировать свои сообщения
    Вы не можете удалять свои сообщения
    Вы не можете голосовать в опросах
    Вы не можете прикреплять файлы к сообщениям
    Вы можете скачивать файлы