Ссылка на приватное зеркало нашего сайта всего за 1$. Внимание количество ограничено!!!

2 сезон

iTunes

1 сезон

1

iTunes

iTunes

iTunes

1 сезон

RePack

30

ИГРА 18+

pack

ВАЖНО

!!Акция!!

Alien_RageХит недели

RePack

MK11
pack

Забери бонус

RePack

jed

!!Акция!!

Alien_Rage

RePack

fifa19

RePack

Assassins Creed: Odyssey

RePack

NEED FOR SPEED™ PAYBACK

4 сезон

9 сезон

Бесстыжие 9 сезон

Все сериалы

все сериалы на PB.wtf

RePack

FAR CRY 5
  

Побочный эффект / Side Effects (Стивен Содерберг) [2013, триллер, драма, криминал, BDRip 1080p by msltel] DUB pb.wtf

Побочный эффект через торрент pb.wtf

Размер: 14.79 GB | Добавлен: 4 года 5 мес. назад | Торрент скачан:53 раза
Скачать  

10-05-2016 07:45 Побочный эффект Скачать торрент  

Название: Побочный эффект
Оригинальное название: Side Effects
Год выпуска: 2013
Страна: США
Жанр: триллер, драма, криминал
Продолжительность: 01:46:22
Перевод: дублированный

Режиссёр: Стивен Содерберг

В ролях: Джуд Лоу, Руни Мара, Кэтрин Зета-Джонс, Ченнинг Татум, Кармен Пелаес, Марин Айрлэнд, Полли Дрэйпер, Аральдо Альварес, Джеймс Мартинез, Владимир Версейл, Жаклин Антарамиан, Мишель Вергара Мур, Кэти Лоус, Дэвид Костабайл, Мэми Гаммер, Стивен Платт, Виктор Круз, Винесса Шоу, Элизабет Родригез, Питер Фридман, Андреа Богарт, Лайла Робинс

Описание: Жизнь Эмили Хоукинс пошла под откос, когда её мужа посадили в тюрьму. Вначале она пыталась спастись от депрессии своими силами, горстями глотая успокоительное. После того как стало понятно, что это не поможет, Эмили не оставалось другого выхода кроме отправления в психиатрическую лечебницу к добрым и заботливым людям в белых халатах. Теперь главная героиня борется со своими внутренними демонами уже не одна — справиться с угнетённым состоянием ей помогают два лучших доктора клиники, а также экспериментальные препараты, обладающие довольно странными побочными эффектами. Не получится ли так, что все внутренние страхи Эмили вместо того, чтобы исчезнуть, вырвутся наружу?...



Качество: BDRip 1080p Сравнение с исходником
Формат: MKV
Видео: MPEG-4 AVC, 17.9 Mбит/с, 1920x1040, 23,976 кадра/с
Аудио 1: русский, AC3, 448 kbps, 6 ch, 48 kHz [дублированный]
Аудио 2: английский, DTS, 1509 kbps, 6 ch, 48 kHz [оригинал]
Субтитры: английские (для слабослышащих)
Общее
Уникальный идентификатор : 208861372654454799485090183177140521646 (0x9D213CB7F7621AD7B58113185A014AAE)
Полное имя : D:\Video\Побочный эффект.2013.BDRip.1080p.mkv
Формат : Matroska
Версия формата : Version 4 / Version 2
Размер файла : 14,8 Гбайт
Продолжительность : 1 ч. 46 м.
Общий поток : 19,9 Мбит/сек
Дата кодирования : UTC 2016-05-10 02:07:19
Программа кодирования : mkvmerge v8.2.0 ('World of Adventure') 64bit
Библиотека кодирования : libebml v1.3.1 + libmatroska v1.4.2

Видео
Идентификатор : 1
Формат : AVC
Формат/Информация : Advanced Video Codec
Профиль формата : High@L4.1
Параметр CABAC формата : Да
Параметр ReFrames формата : 4 кадра
Идентификатор кодека : V_MPEG4/ISO/AVC
Продолжительность : 1 ч. 46 м.
Битрейт : 17,9 Мбит/сек
Ширина : 1920 пикселей
Высота : 1040 пикселей
Соотношение сторон : 1,85:1
Режим частоты кадров : Постоянный
Частота кадров : 23,976 (24000/1001) кадра/сек
Цветовое пространство : YUV
Субдискретизация насыщенности : 4:2:0
Битовая глубина : 8 бит
Тип развёртки : Прогрессивная
Бит/(Пиксели*Кадры) : 0.375
Размер потока : 13,3 Гбайт (90%)
Библиотека кодирования : x264 core 146 r2538 121396c
Настройки программы : cabac=1 / ref=4 / deblock=1:-1:-1 / analyse=0x3:0x113 / me=umh / subme=10 / psy=1 / psy_rd=1.00:0.15 / mixed_ref=1 / me_range=32 / chroma_me=1 / trellis=2 / 8x8dct=1 / cqm=0 / deadzone=21,11 / fast_pskip=1 / chroma_qp_offset=-3 / threads=6 / lookahead_threads=1 / sliced_threads=0 / nr=0 / decimate=1 / interlaced=0 / bluray_compat=0 / constrained_intra=0 / bframes=8 / b_pyramid=2 / b_adapt=2 / b_bias=0 / direct=1 / weightb=1 / open_gop=0 / weightp=2 / keyint=230 / keyint_min=23 / scenecut=40 / intra_refresh=0 / rc_lookahead=40 / rc=crf / mbtree=0 / crf=17.7 / qcomp=0.60 / qpmin=0 / qpmax=69 / qpstep=4 / vbv_maxrate=40000 / vbv_bufsize=50000 / crf_max=0.0 / nal_hrd=none / filler=0 / ip_ratio=1.40 / pb_ratio=1.30 / aq=1:1.00
Язык : English
Default : Да
Forced : Нет

Аудио #1
Идентификатор : 2
Формат : AC-3
Формат/Информация : Audio Coding 3
Расширение режима : CM (complete main)
Параметр Endianness формата : Big
Идентификатор кодека : A_AC3
Продолжительность : 1 ч. 46 м.
Вид битрейта : Постоянный
Битрейт : 448 Кбит/сек
Каналы : 6 каналов
Расположение каналов : Front: L C R, Side: L R, LFE
Частота : 48,0 КГц
Частота кадров : 31,250 кадров/сек (1536 spf)
Метод сжатия : С потерями
Размер потока : 341 Мбайт (2%)
Заголовок : DUB
Язык : Russian
Default : Да
Forced : Нет

Аудио #2
Идентификатор : 3
Формат : DTS
Формат/Информация : Digital Theater Systems
Режим : 16
Параметр Endianness формата : Big
Идентификатор кодека : A_DTS
Продолжительность : 1 ч. 46 м.
Вид битрейта : Постоянный
Битрейт : 1509 Кбит/сек
Каналы : 6 каналов
Расположение каналов : Front: L C R, Side: L R, LFE
Частота : 48,0 КГц
Частота кадров : 93,750 кадра/сек (512 spf)
Битовая глубина : 24 бит
Метод сжатия : С потерями
Размер потока : 1,12 Гбайт (8%)
Заголовок : Original
Язык : English
Default : Нет
Forced : Нет

Текст
Идентификатор : 4
Формат : UTF-8
Идентификатор кодека : S_TEXT/UTF8
Идентификатор кодека/Информация : UTF-8 Plain Text
Продолжительность : 1 ч. 39 м.
Битрейт : 73 бит/сек
Count of elements : 1543
Размер потока : 54,1 Кбайт (0%)
Заголовок : английский (для слабослышащих)
Язык : English
Default : Нет
Forced : Нет
pb.wtf



Скачать Побочный эффект через торрент http://s017.radikal.ru/i427/1605/a0/3a768f4fd082.jpg Скачать фильм Побочный эффект через торрент бесплантно в хорошем качестве Описание: Жизнь Эмили Хоукинс пошла под откос, когда её мужа посадили в тюрьму. Вначале она пыталась спастись от депрессии своими силами, ... 10 10 5
Info! Золотая раздача, скачанное не засчитывается.
Торрент: Зарегистрирован [2016-05-10 07:45] · скачан: 53 раз
Статус: √ проверено
Размер: 14.79 GB
Как cкачать? Как скачать Побочный эффект через торрент | qTorrent

% Раздел Тема Автор DL S | L
Фильмы [HD 720p, 1080p] (Хороший звук DUB, MVO) [ 4.77 GB ] Побочный эффект / Side Effects [2013 BDRip 720p by msltel] DUB msltel Скачать
1 | 1

28-11-2019 20:33  

Отключить всю рекламу на сайте

11-05-2016 20:21 Побочный эффект Скачать торрент  

lf only badpb.wtf



29-02-2020 18:25 Побочный эффект Скачать торрент  

Где собственно раздача?pb.wtf



    Дорогой пользователь! Огромная просьба, поблагодарите релизера, оцените раздачу и оставьте свои комментарий, если Вы скачали Побочный эффект через торрент бесплатно! Внесите свою лепту в развитие PiratBit!
    Комментировать посты могут только пользователи прошедшие не сложную регистрацию
    Показать сообщения:    

    Побочный эффект через торрент
    Скачать бесплатно Побочный эффект
    Побочный эффект скачать торрент
    Побочный эффект смотреть онлайн
    Cкачать фильм Побочный эффект бесплатно
    Побочный эффект скачать торрент в хорошем качестве
    Побочный эффект смотреть онлайн бесплатно в хорошем качестве


    Вы не можете начинать темы
    Вы не можете отвечать на сообщения
    Вы не можете редактировать свои сообщения
    Вы не можете удалять свои сообщения
    Вы не можете голосовать в опросах
    Вы не можете прикреплять файлы к сообщениям
    Вы можете скачивать файлы